Rebecca Ferguson – Lady Sings The Blues (2015) {WEB}

Rebecca Ferguson - Lady Sings The Blues (2015) {WEB}

Rebecca Ferguson – Lady Sings The Blues (2015) {WEB}
Digital Download | FLAC Tracks | Front Cover
FLAC: 343 MB | 3% RAR Recovery
Label: RCA Records | Genre: Vocal Jazz

Lady Sings the Blues is the third studio album British singer-songwriter Rebecca Ferguson. It was released on 6 March 2015 by Syco Music and RCA Records. The album is an interpretation of songs performed by American jazz singer Billie Holiday, most predominantly from her 1956 album of the same name.

Additional Info:
• Released Date: March 6, 2015
• Producer: Troy Miller
• More info: Here

Tracklist:
01. Get Happy – 2:49
02. Fine And Mellow – 2:36
03. Embraceable You – 3:36
04. That Ole Devil Called Love – 3:06
05. Blue Moon – 2:50
06. I Thought About You – 3:03
07. Summertime – 2:50
08. I’ll Never Smile Again – 3:21
09. Lover Man (Oh Where Can You Be) – 3:18
10. All Of Me – 2:39
11. God Bless The Child – 3:33
12. What Is This Thing Called Love – 2:38
13. Stormy Weather – 3:12
14. Lady Sings The Blues – 3:36
15. Willow Weep For Me – 2:38
16. Don’t Explain – 3:52
17. My Man – 3:34

Dynamic Range Report
foobar2000 1.3.7 / Dynamic Range Meter 1.1.1
log date: 2015-04-04 02:38:05

——————————————————————————–
Analyzed: Rebecca Ferguson / Lady Sings The Blues
——————————————————————————–

DR Peak RMS Duration Track
——————————————————————————–
DR8 0.00 dB -9.49 dB 2:49 01-Get Happy
DR8 -0.66 dB -10.75 dB 2:36 02-Fine And Mellow
DR8 -0.76 dB -12.34 dB 3:36 03-Embraceable You
DR7 -0.54 dB -9.78 dB 3:06 04-That Ole Devil Called Love
DR9 -0.67 dB -12.29 dB 2:50 05-Blue Moon
DR7 -0.66 dB -10.45 dB 3:03 06-I Thought About You
DR6 -0.68 dB -10.65 dB 2:50 07-Summertime
DR9 -0.79 dB -12.98 dB 3:21 08-I’ll Never Smile Again
DR8 -0.70 dB -11.22 dB 3:18 09-Lover Man (Oh Where Can You Be)
DR8 -0.76 dB -12.16 dB 2:39 10-All Of Me
DR7 -0.69 dB -10.21 dB 3:33 11-God Bless The Child
DR10 -0.20 dB -12.44 dB 2:38 12-What Is This Thing Called Love
DR7 -0.75 dB -10.82 dB 3:12 13-Stormy Weather
DR8 -0.70 dB -12.18 dB 3:36 14-Lady Sings The Blues
DR10 -0.78 dB -14.21 dB 2:38 15-Willow Weep For Me
DR10 -0.77 dB -14.46 dB 3:52 16-Don’t Explain
DR8 -0.45 dB -10.81 dB 3:34 17-My Man
——————————————————————————–

Number of tracks: 17
Official DR value: DR8

Samplerate: 44100 Hz
Channels: 2
Bits per sample: 16
Bitrate: 888 kbps
Codec: FLAC
================================================================================

auCDtect Task Manager
———————–

DON’T MODIFY THIS FILE

———————–

PERFORMER: auCDtect Task Manager, ver. 1.6.0 RC1 build 1.6.0.1
Copyright (c) 2008-2010 y-soft. All rights reserved
http://y-soft.org

ANALYZER: auCDtect: CD records authenticity detector, version 0.8.2
Copyright (c) 2004 Oleg Berngardt. All rights reserved.
Copyright (c) 2004 Alexander Djourik. All rights reserved.

FILE: 08. I’ll Never Smile Again.flac
Size: 21029754 Hash: 77BF761C7C3936419DB9E473B1613354 Accuracy: -m0
Conclusion: CDDA 100%
Signature: C00700CF20E553F1231C375AC9CD41DFC630EE8D
FILE: 07. Summertime.flac
Size: 18369353 Hash: FCB0D3DEE727CF1B6FAB347B3411A03C Accuracy: -m0
Conclusion: CDDA 100%
Signature: 3A80B645816FA4B4E40F78CF5B1A23E9E06B5920
FILE: 06. I Thought About You.flac
Size: 20166367 Hash: BC56FFFF66461F202079E456C0AF3896 Accuracy: -m0
Conclusion: CDDA 100%
Signature: CB9CAB6DE4BA5B32C11EF9E4D22E737F63B0E3D9
FILE: 05. Blue Moon.flac
Size: 16302071 Hash: F6E01ADD32E3B3D42B7015B3A36F40B4 Accuracy: -m0
Conclusion: CDDA 99%
Signature: EF7F3B3D0AB5E3AF5579CBC0EBD3C2941FE6FE64
FILE: 04. That Ole Devil Called Love.flac
Size: 21922436 Hash: 3724D1919580318120FE137E4289D14A Accuracy: -m0
Conclusion: CDDA 100%
Signature: 654657A147C13E50D1F6811199658C04057F9C80
FILE: 03. Embraceable You.flac
Size: 23731027 Hash: DCA1C2C929CF1A1F9CB9A602FE4A0E47 Accuracy: -m0
Conclusion: CDDA 100%
Signature: 39B9BD1452A2989EF94B85F954824C7279922D67
FILE: 02. Fine And Mellow.flac
Size: 18252771 Hash: 21A2AF1C97D03E06BE0E91FCFA71F170 Accuracy: -m0
Conclusion: CDDA 100%
Signature: E29DD5A5E3207648D1ADC5E60847CB08F7A1519C
FILE: 01. Get Happy.flac
Size: 20194663 Hash: F8EA4DD32D514C2A98CB11D5BFD9C7B5 Accuracy: -m0
Conclusion: CDDA 100%
Signature: 7BBA249522471AA6744A4D7CB8CB584E1F1E0E38
FILE: 17. My Man.flac
Size: 23795602 Hash: 1F4A351D7350B5C050F8B758376DF350 Accuracy: -m0
Conclusion: CDDA 100%
Signature: F3EC2DC8C6C86E0F3A3C8B86C3DAE93AD30257CE
FILE: 16. Don’t Explain.flac
Size: 23634723 Hash: 236C98CD974BA2760ECA6259D67C1506 Accuracy: -m0
Conclusion: CDDA 100%
Signature: 301A7773EBD09A5904F3EE966569337731A18EF5
FILE: 15. Willow Weep For Me.flac
Size: 16044424 Hash: D5B373C63373AA6EC13DC3D82D8B94FE Accuracy: -m0
Conclusion: CDDA 100%
Signature: C741ACFEB83EDC79EE3F71647078A2965C22ED15
FILE: 14. Lady Sings The Blues.flac
Size: 24135193 Hash: 564A4C8513325B702788FF1E49BF62F1 Accuracy: -m0
Conclusion: CDDA 100%
Signature: D254D8B883305B24985244C71799F33A60A0D667
FILE: 13. Stormy Weather.flac
Size: 20428371 Hash: 482DD9F63CF5DF311E9EF850883B32DB Accuracy: -m0
Conclusion: CDDA 100%
Signature: BF18126405A372CE7CFBABE39F49FFAA817A2183
FILE: 12. What Is This Thing Called Love.flac
Size: 18763668 Hash: E09E4166A44BAC9CA79D2F9594F2E366 Accuracy: -m0
Conclusion: CDDA 100%
Signature: 56864F59F16CC2B98BF3BB043BC3ECBE76E38438
FILE: 11. God Bless The Child.flac
Size: 24098143 Hash: 510EA87818866DEC16E6DE3796475ACB Accuracy: -m0
Conclusion: CDDA 100%
Signature: 48685E9196580AAE77A73AE1958AD4595E95D3D3
FILE: 10. All Of Me.flac
Size: 16241796 Hash: 7EB5F1A5C7D6556BF50BD1D892FC5363 Accuracy: -m0
Conclusion: CDDA 100%
Signature: 5E7E8BA7A0DDF8B33C43E7579C430C709A473B25
FILE: 09. Lover Man (Oh Where Can You Be).flac
Size: 22352146 Hash: 00E9E130A03A1B813635CEBA18EED779 Accuracy: -m0
Conclusion: CDDA 100%
Signature: 414FB2487E1523BAEF51CBBBF9AD194F74D364E0

Download From
 
LMA__RF.LSTB.2015.WEB.rar
 
Password: www.LosslessMA.net
 
If you encounter broken links or other problem about this publication, please let me know
and write your comment below. I will reply and fix as soon as possible.