VA – The Cruisin’ Story 1955 (2012)

VA - The Cruisin' Story 1955 (2012)

VA – The Cruisin’ Story 1955 (2012)
EAC Rip | FLAC Image + Cue + Log | Full Scans @300 dpi, JPG, Included
FLAC: 615 MB | 3% RAR Recovery
Label: One Day Music | Cat#: DAY2CD167 | Genre: Rock & Roll, Rockabilly

One Day Music’s Cruisin’ series continues with the year 1955 and more classic hits. Featured artists include Bill Haley & The Comets, Elvis Presley, Chuck Berry, Fats Domino, Bo Diddley and more!

Additional Info:
• Released Date: September 25, 2012

Disc 1:
01. Bill Haley & His Comets – Rock Around The Clock – 02:11
02. Ray Charles – I Got A Woman – 02:51
03. The Charms – Hearts Of Stone – 02:34
04. The Moonglows – Sincerely – 03:12
05. Bo Diddley – Bo Diddley – 02:43
06. Elvis Presley – Mystery Train – 02:26
07. Boyd Bennett & His Rockets – My Boy Flat Top – 02:29
08. The Cleftones – You Baby You – 02:42
09. Carl Perkins – Gone Gone Gone – 02:39
10. The Penguins – Earth Angel – 02:54
11. Fats Domino – Ain’t That A Shame – 02:29
12. The Drifters – Adorable – 02:41
13. Chuck Berry – Maybellene – 02:21
14. The Clovers – Nip Sip – 02:59
15. Etta James – The Wallflower (Dance With Me Henry) – 03:06
16. The Platters – Only You – 02:37
17. Joe Turner – Flip, Flop & Fly – 02:47
18. The Five Keys – Close Your Eyes – 02:18
19. Johnny Cash – Cry! Cry! Cry! – 02:26
20. Elvis Presley – I’m left, You’re Right, She’s Gone – 02:38
21. The Spiders – Witchcraft – 02:36
22. Merrill Moore – Rock Rockola – 02:14
23. Johnny Ace – Pledging My Love – 02:26
24. Shirley & Lee – Feel So Good – 02:51
25. Tennessee Ernie Ford – Sixteen Tons – 02:37

Disc 2
01. Chuck Berry – Thirty Days – 02:26
02. Bo Diddley – Pretty Thing – 02:45
03. Little Walter – My Babe – 02:41
04. Elvis Presley – Baby Let’s Play House – 02:17
05. Hank Ballard & The Midnighters – Annie Had A Baby – 02:40
06. Bobby Charles – See You Later Alligator – 02:49
07. Boyd Bennett & His Rockets – Seventeen – 02:07
08. Roy Hall – Whole Lotta Shakin’ Goin’ On – 02:58
09. Nappy Brown – Don’t Be Angry – 02:23
10. The Cardinals – Come Back My Love – 02:27
11. Clyde McPhatter – Seven Days – 02:29
12. The Drifters – Whatcha Gonna Do – 02:47
13. Etta James – Good Rockin’ Daddy – 02:27
14. The El Dorados – At My Front Door – 02:35
15. Johnny Cash – Hey Porter! – 02:13
16. Little Willie John – Need Your Love So Bad – 02:17
17. Elvis Presley – I Forgot To Remember To Forget – 02:30
18. Bill Haley & His Comets – Razzle Dazzle – 02:43
19. The Clovers – Blue Velvet – 02:38
20. Ruth Brown – What’d I Say? – 02:38
21. LaVern Baker – That Lucky Old Sun – 02:55
22. The Nutmegs – Story Untold – 02:19
23. Gale Storm – I Hear You Knocking – 02:22
24. The Turbans – When You Dance – 02:56
25. Dean Martin – Memories Are Made Of This – 02:23

EAC Logs
EAC Log Disc 1

Exact Audio Copy V1.0 beta 4 from 7. December 2014

Отчёт EAC об извлечении, выполненном 1. апреля 2015, 23:13

Various Artists / The Cruisin' Story 1955 (CD1)

Дисковод: HL-DT-STDVDRAM GUA0N Adapter: 1 ID: 0

Режим чтения : Достоверность
Использование точного потока : Да
Отключение кэша аудио : Да
Использование указателей C2 : Нет

Коррекция смещения при чтении : 6
Способность читать области Lead-in и Lead-out : Нет
Заполнение пропущенных сэмплов тишиной : Да
Удаление блоков с тишиной в начале и конце : Нет
При вычислениях CRC использовались нулевые сэмплы : Да
Интерфейс : Встроенный Win32-интерфейс для Win NT/2000

Выходной формат : Пользовательский кодировщик
Выбранный битрейт : 768 kBit/s
Качество : Высокий
Добавление ID3-тега : Нет
Утилита сжатия : C:\Program Files (x86)\Exact Audio Copy\FLAC\FLAC.EXE
Дополнительные параметры : -6 -V -T "ARTIST=%artist%" -T "TITLE=%title%" -T "ALBUM=%albumtitle%" -T "DATE=%year%" -T "TRACKNUMBER=%tracknr%" -T "GENRE=%genre%" -T "COMMENT=%comment%" -T "BAND=%albuminterpret%" -T "ALBUMARTIST=%albuminterpret%" -T "COMPOSER=%composer%" %haslyrics%--tag-from-file=LYRICS="%lyricsfile%"%haslyrics% -T "DISCNUMBER=%cdnumber%" -T "TOTALDISCS=%totalcds%" -T "TOTALTRACKS=%numtracks%" %hascover%--picture="%coverfile%"%hascover% %source% -o %dest%

TOC извлечённого CD

Трек | Старт | Длительность | Начальный сектор | Конечный сектор
---------------------------------------------------------------------
1 | 0:00.00 | 2:11.40 | 0 | 9864
2 | 2:11.40 | 2:51.47 | 9865 | 22736
3 | 5:03.12 | 2:34.58 | 22737 | 34344
4 | 7:37.70 | 3:12.29 | 34345 | 48773
5 | 10:50.24 | 2:43.54 | 48774 | 61052
6 | 13:34.03 | 2:26.46 | 61053 | 72048
7 | 16:00.49 | 2:29.60 | 72049 | 83283
8 | 18:30.34 | 2:42.33 | 83284 | 95466
9 | 21:12.67 | 2:39.45 | 95467 | 107436
10 | 23:52.37 | 2:54.09 | 107437 | 120495
11 | 26:46.46 | 2:29.47 | 120496 | 131717
12 | 29:16.18 | 2:41.24 | 131718 | 143816
13 | 31:57.42 | 2:21.30 | 143817 | 154421
14 | 34:18.72 | 2:59.26 | 154422 | 167872
15 | 37:18.23 | 3:06.36 | 167873 | 181858
16 | 40:24.59 | 2:37.42 | 181859 | 193675
17 | 43:02.26 | 2:47.53 | 193676 | 206253
18 | 45:50.04 | 2:18.56 | 206254 | 216659
19 | 48:08.60 | 2:26.74 | 216660 | 227683
20 | 50:35.59 | 2:38.13 | 227684 | 239546
21 | 53:13.72 | 2:36.54 | 239547 | 251300
22 | 55:50.51 | 2:14.72 | 251301 | 261422
23 | 58:05.48 | 2:26.24 | 261423 | 272396
24 | 60:31.72 | 2:51.56 | 272397 | 285277
25 | 63:23.53 | 2:37.02 | 285278 | 297054

Характеристики диапазона извлечения и сообщения об ошибках

Выбранный диапазон

Имя файла E:\EAC\The Cruisin' Story (1955-1960)\CD 1 - 1955 Disc 1\Various Artists - The Cruisin' Story 1955 (CD1).wav

Пиковый уровень 98.8 %
Скорость извлечения 4.9 X
Качество диапазона 99.9 %
CRC теста 3046D2A9
CRC копии 3046D2A9
Копирование... OK

Ошибок не произошло

AccurateRip: сводка

Трек 1 : извлечено точно (доверие 1) [B32C6F53] (AR v2)
Трек 2 : извлечено точно (доверие 1) [029AD862] (AR v2)
Трек 3 : извлечено точно (доверие 1) [AA2F77A5] (AR v2)
Трек 4 : извлечено точно (доверие 1) [D2929DDD] (AR v2)
Трек 5 : извлечено точно (доверие 1) [4E50F172] (AR v2)
Трек 6 : извлечено точно (доверие 1) [CEA84D48] (AR v2)
Трек 7 : извлечено точно (доверие 1) [306669BC] (AR v2)
Трек 8 : извлечено точно (доверие 1) [B1BB7625] (AR v2)
Трек 9 : извлечено точно (доверие 1) [9855D7FB] (AR v2)
Трек 10 : извлечено точно (доверие 1) [B26844F8] (AR v2)
Трек 11 : извлечено точно (доверие 1) [8C9C59E0] (AR v2)
Трек 12 : извлечено точно (доверие 1) [69E31FB5] (AR v2)
Трек 13 : извлечено точно (доверие 1) [CD913CD4] (AR v2)
Трек 14 : извлечено точно (доверие 1) [6F5D106D] (AR v2)
Трек 15 : извлечено точно (доверие 1) [3DAF1D6B] (AR v2)
Трек 16 : извлечено точно (доверие 1) [3B80A981] (AR v2)
Трек 17 : извлечено точно (доверие 1) [D697C3D6] (AR v2)
Трек 18 : извлечено точно (доверие 1) [E1D863B5] (AR v2)
Трек 19 : извлечено точно (доверие 1) [40C5E07B] (AR v2)
Трек 20 : извлечено точно (доверие 1) [F9B61324] (AR v2)
Трек 21 : извлечено точно (доверие 1) [ADD9EE0F] (AR v2)
Трек 22 : извлечено точно (доверие 1) [FA9E5FDB] (AR v2)
Трек 23 : извлечено точно (доверие 1) [4BA8D7F1] (AR v2)
Трек 24 : извлечено точно (доверие 1) [CA410D50] (AR v2)
Трек 25 : извлечено точно (доверие 1) [ACB0C7B4] (AR v2)

Все треки извлечены точно

Конец отчёта

==== Контрольная сумма отчёта 49437FEEEE26B98AE9CC6F389EEECA2DABF6C5A55A38531F5BF3968FEC73F053 ====
[_/su_spoiler]

EAC Log Disc 2

Exact Audio Copy V1.0 beta 4 from 7. December 2014

Отчёт EAC об извлечении, выполненном 1. апреля 2015, 22:18

Various Artists / The Cruisin' Story 1955 (CD2)

Дисковод: HL-DT-STDVDRAM GUA0N Adapter: 1 ID: 0

Режим чтения : Достоверность
Использование точного потока : Да
Отключение кэша аудио : Да
Использование указателей C2 : Нет

Коррекция смещения при чтении : 6
Способность читать области Lead-in и Lead-out : Нет
Заполнение пропущенных сэмплов тишиной : Да
Удаление блоков с тишиной в начале и конце : Нет
При вычислениях CRC использовались нулевые сэмплы : Да
Интерфейс : Встроенный Win32-интерфейс для Win NT/2000

Выходной формат : Пользовательский кодировщик
Выбранный битрейт : 768 kBit/s
Качество : Высокий
Добавление ID3-тега : Нет
Утилита сжатия : C:\Program Files (x86)\Exact Audio Copy\FLAC\FLAC.EXE
Дополнительные параметры : -6 -V -T "ARTIST=%artist%" -T "TITLE=%title%" -T "ALBUM=%albumtitle%" -T "DATE=%year%" -T "TRACKNUMBER=%tracknr%" -T "GENRE=%genre%" -T "COMMENT=%comment%" -T "BAND=%albuminterpret%" -T "ALBUMARTIST=%albuminterpret%" -T "COMPOSER=%composer%" %haslyrics%--tag-from-file=LYRICS="%lyricsfile%"%haslyrics% -T "DISCNUMBER=%cdnumber%" -T "TOTALDISCS=%totalcds%" -T "TOTALTRACKS=%numtracks%" %hascover%--picture="%coverfile%"%hascover% %source% -o %dest%

TOC извлечённого CD

Трек | Старт | Длительность | Начальный сектор | Конечный сектор
---------------------------------------------------------------------
1 | 0:00.00 | 2:26.18 | 0 | 10967
2 | 2:26.18 | 2:45.46 | 10968 | 23388
3 | 5:11.64 | 2:41.15 | 23389 | 35478
4 | 7:53.04 | 2:17.37 | 35479 | 45790
5 | 10:10.41 | 2:40.11 | 45791 | 57801
6 | 12:50.52 | 2:49.56 | 57802 | 70532
7 | 15:40.33 | 2:07.05 | 70533 | 80062
8 | 17:47.38 | 2:58.21 | 80063 | 93433
9 | 20:45.59 | 2:23.58 | 93434 | 104216
10 | 23:09.42 | 2:27.68 | 104217 | 115309
11 | 25:37.35 | 2:29.41 | 115310 | 126525
12 | 28:07.01 | 2:47.17 | 126526 | 139067
13 | 30:54.18 | 2:27.00 | 139068 | 150092
14 | 33:21.18 | 2:35.22 | 150093 | 161739
15 | 35:56.40 | 2:13.24 | 161740 | 171738
16 | 38:09.64 | 2:17.03 | 171739 | 182016
17 | 40:26.67 | 2:30.33 | 182017 | 193299
18 | 42:57.25 | 2:43.45 | 193300 | 205569
19 | 45:40.70 | 2:38.12 | 205570 | 217431
20 | 48:19.07 | 2:38.12 | 217432 | 229293
21 | 50:57.19 | 2:55.48 | 229294 | 242466
22 | 53:52.67 | 2:19.31 | 242467 | 252922
23 | 56:12.23 | 2:22.27 | 252923 | 263599
24 | 58:34.50 | 2:56.38 | 263600 | 276837
25 | 61:31.13 | 2:24.00 | 276838 | 287637

Характеристики диапазона извлечения и сообщения об ошибках

Выбранный диапазон

Имя файла E:\EAC\The Cruisin' Story (1955-1960)\CD 2 - 1955 Disc 2\Various Artists - The Cruisin' Story 1955 (CD2).wav

Пиковый уровень 98.8 %
Скорость извлечения 2.1 X
Качество диапазона 100.0 %
CRC теста 0ECDB207
CRC копии 0ECDB207
Копирование... OK

Ошибок не произошло

AccurateRip: сводка

Трек 1 : извлечено точно (доверие 1) [8949C596] (AR v2)
Трек 2 : извлечено точно (доверие 1) [58781894] (AR v2)
Трек 3 : извлечено точно (доверие 1) [1077970E] (AR v2)
Трек 4 : извлечено точно (доверие 1) [AA35AFF7] (AR v2)
Трек 5 : извлечено точно (доверие 1) [C960A50A] (AR v2)
Трек 6 : извлечено точно (доверие 1) [4553A6AA] (AR v2)
Трек 7 : извлечено точно (доверие 1) [996F997D] (AR v2)
Трек 8 : извлечено точно (доверие 1) [A86D6B5A] (AR v2)
Трек 9 : извлечено точно (доверие 1) [C2711C7C] (AR v2)
Трек 10 : извлечено точно (доверие 1) [046F2929] (AR v2)
Трек 11 : извлечено точно (доверие 1) [FE425A74] (AR v2)
Трек 12 : извлечено точно (доверие 1) [D58B381F] (AR v2)
Трек 13 : извлечено точно (доверие 1) [99EAE8C8] (AR v2)
Трек 14 : извлечено точно (доверие 1) [8311E335] (AR v2)
Трек 15 : извлечено точно (доверие 1) [188076E7] (AR v2)
Трек 16 : извлечено точно (доверие 1) [E79092E0] (AR v2)
Трек 17 : извлечено точно (доверие 1) [B1E25309] (AR v2)
Трек 18 : извлечено точно (доверие 1) [CF6AD3BB] (AR v2)
Трек 19 : извлечено точно (доверие 1) [333190DA] (AR v2)
Трек 20 : извлечено точно (доверие 1) [5DCDBD5E] (AR v2)
Трек 21 : извлечено точно (доверие 1) [01E2F79F] (AR v2)
Трек 22 : извлечено точно (доверие 1) [4081544F] (AR v2)
Трек 23 : извлечено точно (доверие 1) [7DE1E740] (AR v2)
Трек 24 : извлечено точно (доверие 1) [E369FCD8] (AR v2)
Трек 25 : извлечено точно (доверие 1) [DBE47795] (AR v2)

Все треки извлечены точно

Конец отчёта

==== Контрольная сумма отчёта 11C7A9419EB60A05542F31EE5E5FA1B0743C349F4F279147CB2B64DF6563E623 ====
[_/su_spoiler]

CUETools 2.1.5 Logs
CUETools 2.1.5 Disc 1

[CUETools log; Date: 4/9/2015 7:07:57 PM; Version: 2.1.5]
[CTDB TOCID: vRfVZZDcMOmo_XwOUnfhJ8rCCMs-] found.
Track | CTDB Status
1 | (1/1) Accurately ripped
2 | (1/1) Accurately ripped
3 | (1/1) Accurately ripped
4 | (1/1) Accurately ripped
5 | (1/1) Accurately ripped
6 | (1/1) Accurately ripped
7 | (1/1) Accurately ripped
8 | (1/1) Accurately ripped
9 | (1/1) Accurately ripped
10 | (1/1) Accurately ripped
11 | (1/1) Accurately ripped
12 | (1/1) Accurately ripped
13 | (1/1) Accurately ripped
14 | (1/1) Accurately ripped
15 | (1/1) Accurately ripped
16 | (1/1) Accurately ripped
17 | (1/1) Accurately ripped
18 | (1/1) Accurately ripped
19 | (1/1) Accurately ripped
20 | (1/1) Accurately ripped
21 | (1/1) Accurately ripped
22 | (1/1) Accurately ripped
23 | (1/1) Accurately ripped
24 | (1/1) Accurately ripped
25 | (1/1) Accurately ripped
[AccurateRip ID: 003b4d87-042b4750-5d0f7819] found.
Track [ CRC | V2 ] Status
01 [119d654d|b32c6f53] (0+1/1) Accurately ripped
02 [6bafcf8f|029ad862] (0+1/1) Accurately ripped
03 [74048dc5|aa2f77a5] (0+1/1) Accurately ripped
04 [91f4a417|d2929ddd] (0+1/1) Accurately ripped
05 [c00d327d|4e50f172] (0+1/1) Accurately ripped
06 [d6266a45|cea84d48] (0+1/1) Accurately ripped
07 [726d527f|306669bc] (0+1/1) Accurately ripped
08 [f854b58f|b1bb7625] (0+1/1) Accurately ripped
09 [61d853c3|9855d7fb] (0+1/1) Accurately ripped
10 [caebc703|b26844f8] (0+1/1) Accurately ripped
11 [38ae98af|8c9c59e0] (0+1/1) Accurately ripped
12 [c6071ec7|69e31fb5] (0+1/1) Accurately ripped
13 [a867675e|cd913cd4] (0+1/1) Accurately ripped
14 [2da023a4|6f5d106d] (0+1/1) Accurately ripped
15 [3858ac71|3daf1d6b] (0+1/1) Accurately ripped
16 [6a457a30|3b80a981] (0+1/1) Accurately ripped
17 [bb4a7d0e|d697c3d6] (0+1/1) Accurately ripped
18 [fa6be480|e1d863b5] (0+1/1) Accurately ripped
19 [b1a9eda2|40c5e07b] (0+1/1) Accurately ripped
20 [b3928a63|f9b61324] (0+1/1) Accurately ripped
21 [e0172745|add9ee0f] (0+1/1) Accurately ripped
22 [55cda2bc|fa9e5fdb] (0+1/1) Accurately ripped
23 [4b3b1538|4ba8d7f1] (0+1/1) Accurately ripped
24 [7d5cb0df|ca410d50] (0+1/1) Accurately ripped
25 [8916667a|acb0c7b4] (0+1/1) Accurately ripped

Track Peak [ CRC32 ] [W/O NULL] [ LOG ]
-- 98.8 [3046D2A9] [6A083222] CRC32
01 98.4 [F9F7C446] [22C1A418]
02 98.5 [5C9FE39F] [0B828E2D]
03 98.8 [9FFF187B] [B21BAB7E]
04 98.8 [FB351F01] [07845603]
05 98.3 [BAE2F02C] [F480511C]
06 98.3 [7C3E7DF8] [9ED6874A]
07 98.5 [81D8B37A] [967B1121]
08 98.8 [3F28EB6A] [718CD8BC]
09 98.7 [70421D4B] [2F480BEC]
10 98.3 [9DF72F84] [0857589F]
11 98.5 [BAFCC8DE] [CF1791FE]
12 98.4 [6F7AC5A0] [8747E34F]
13 98.3 [182A0CCB] [CC4148F8]
14 98.6 [552690B1] [F727A7E7]
15 98.3 [DC4FE99F] [1161EE4E]
16 98.2 [00874C29] [D20302D0]
17 98.6 [471F9838] [17AE6698]
18 98.3 [D2CBA3FD] [0BF08032]
19 98.4 [57EE6D38] [3D438B36]
20 98.4 [D3CE5511] [CD6ADD74]
21 98.4 [B0690C9A] [16BF8465]
22 98.3 [B04C454A] [C533B3BA]
23 98.3 [284D835C] [B9C64524]
24 98.6 [3BA67F64] [3C74260B]
25 98.3 [2EB146DA] [606650E4]
[_/su_spoiler]

CUETools 2.1.5 Disc 2

[CUETools log; Date: 4/9/2015 7:08:02 PM; Version: 2.1.5]
[CTDB TOCID: _D5tvOP.anlEJ_Bvbw6jWJaXPfg-] found.
Track | CTDB Status
1 | (1/1) Accurately ripped
2 | (1/1) Accurately ripped
3 | (1/1) Accurately ripped
4 | (1/1) Accurately ripped
5 | (1/1) Accurately ripped
6 | (1/1) Accurately ripped
7 | (1/1) Accurately ripped
8 | (1/1) Accurately ripped
9 | (1/1) Accurately ripped
10 | (1/1) Accurately ripped
11 | (1/1) Accurately ripped
12 | (1/1) Accurately ripped
13 | (1/1) Accurately ripped
14 | (1/1) Accurately ripped
15 | (1/1) Accurately ripped
16 | (1/1) Accurately ripped
17 | (1/1) Accurately ripped
18 | (1/1) Accurately ripped
19 | (1/1) Accurately ripped
20 | (1/1) Accurately ripped
21 | (1/1) Accurately ripped
22 | (1/1) Accurately ripped
23 | (1/1) Accurately ripped
24 | (1/1) Accurately ripped
25 | (1/1) Accurately ripped
[AccurateRip ID: 0039068f-0401a928-700efb19] found.
Track [ CRC | V2 ] Status
01 [ddc02cb6|8949c596] (0+1/1) Accurately ripped
02 [161dddde|58781894] (0+1/1) Accurately ripped
03 [40a5521e|1077970e] (0+1/1) Accurately ripped
04 [8f56e5ab|aa35aff7] (0+1/1) Accurately ripped
05 [d06f16b4|c960a50a] (0+1/1) Accurately ripped
06 [48d295a0|4553a6aa] (0+1/1) Accurately ripped
07 [f121a9f7|996f997d] (0+1/1) Accurately ripped
08 [f6d65b5a|a86d6b5a] (0+1/1) Accurately ripped
09 [ea68ca6a|c2711c7c] (0+1/1) Accurately ripped
10 [fe5f50d9|046f2929] (0+1/1) Accurately ripped
11 [6a7bab70|fe425a74] (0+1/1) Accurately ripped
12 [07616ef2|d58b381f] (0+1/1) Accurately ripped
13 [75583d46|99eae8c8] (0+1/1) Accurately ripped
14 [d815a793|8311e335] (0+1/1) Accurately ripped
15 [45c1f086|188076e7] (0+1/1) Accurately ripped
16 [54f787e7|e79092e0] (0+1/1) Accurately ripped
17 [e7166677|b1e25309] (0+1/1) Accurately ripped
18 [dcad727f|cf6ad3bb] (0+1/1) Accurately ripped
19 [7edb6c27|333190da] (0+1/1) Accurately ripped
20 [03c240ed|5dcdbd5e] (0+1/1) Accurately ripped
21 [dc87fc33|01e2f79f] (0+1/1) Accurately ripped
22 [4ee26806|4081544f] (0+1/1) Accurately ripped
23 [69dad68a|7de1e740] (0+1/1) Accurately ripped
24 [bd920ea9|e369fcd8] (0+1/1) Accurately ripped
25 [f2dea2c3|dbe47795] (0+1/1) Accurately ripped

Track Peak [ CRC32 ] [W/O NULL] [ LOG ]
-- 98.8 [0ECDB207] [74DF0670] CRC32
01 98.3 [0DE7FBF4] [88E72E77]
02 98.3 [C9503552] [21F6D817]
03 98.4 [F51B12BC] [BF82DC79]
04 98.4 [34A59BD1] [B91652B5]
05 98.3 [955A4047] [42F226C5]
06 98.3 [56A5389E] [0263B54C]
07 98.6 [37DDB0E3] [E371A14F]
08 98.3 [53CFE0CF] [DBFF5EFA]
09 83.8 [B4A736D0] [A030956E]
10 98.8 [954D66C5] [E42F0E68]
11 98.4 [A696A649] [9D2D28DB]
12 98.4 [152D56E0] [E2C25F4F]
13 98.5 [0EE2EC58] [1D234406]
14 98.4 [6E7AA230] [E522EC94]
15 98.5 [1F06B785] [9DC75D6B]
16 98.3 [4290F871] [23D9A1FD]
17 98.4 [BC3821F9] [0B5FBF0F]
18 98.2 [16576A0C] [4C78A5C6]
19 98.3 [4A11F9D3] [6268F020]
20 98.2 [C1C65338] [83F8AA82]
21 98.4 [796DEEE6] [1DD1D6FE]
22 98.5 [0A8D25DC] [F8BE3A50]
23 98.3 [9C562AF0] [0C843D29]
24 98.5 [E885AC62] [F794A841]
25 98.4 [6E81FB7C] [1F9E80CB]
[_/su_spoiler]

Back & CD label

imagebam.com imagebam.com imagebam.com

Download From
 
LMA__TCS.1955.2012.rar
 
Password: www.LosslessMA.net
 
If you encounter broken links or other problem about this publication, please let me know
and write your comment below. I will reply and fix as soon as possible.