Climax Blues Band – Broke Heart Blues (2015)

Climax Blues Band - Broke Heart Blues (2015)

Climax Blues Band – Broke Heart Blues (2015)
EAC Rip | FLAC Image + Cue + Log | Full Scans Included
FLAC: 501 MB | 3% RAR Recovery
Label: Angel Air | Cat#: SJPCD465 | Genre: Blues Rock

Pete Haycock and Robin George had worked together on the charity album “LovePower and Peace” and the opportunity to make an album together to tour was not to be missed. The duo assembled in 2013 a cast of heritage musicians with all tracks mostly co-written by Haycock and George and they also coproduced the album. Pete had experienced worldwide fame as part of Climax Blues Band and Robin has enjoyed one the most varied and successful careers as guitarist/singer/producer. The world was their oyster but it was not to be as Pete died of a heart attack age 62 on 30th October 2013 having just completed the album “Broken Heart Blues”. Classic bluesy rock played by the masters.

Personnel / Credits:
• Robin George – guitars and lead vocals
• Pete Haycock – guitars and lead vocals
• Mel Collins – saxophone
• Charlie Morgan – drums
• Charley Charlesworth – bass guitar
• Jacquie Williams – lead vocals

Additional Info:
• Released Date: March 9, 2015

Tracklist:
01. Blue Monday – 04:16
02. Cruel – 03:33
03. Gossip Is Gold – 05:05
04. Miss You So – 04:12
05. The Rubicon – 04:27
06. Lonely Avenue – 04:07
07. Gotta Get It Right – 03:17
08. Bluesong – 06:32
09. Broke Heart Blues – 04:18
10. Miracle – 04:32
11. I Feel So Blue – 05:08
12. You Ain’t Got The Right – 03:12
13. Oxygen – 04:06
14. Bluesong acoustic – 06:29

EAC Log
Exact Audio Copy V1.0 beta 3 from 29. August 2011

EAC extraction logfile from 28. March 2015, 8:53

Climax Blues Band / Broke Heart Blues

Used drive : PLEXTOR BD-R PX-B940SA Adapter: 5 ID: 0

Read mode : Secure
Utilize accurate stream : Yes
Defeat audio cache : Yes
Make use of C2 pointers : No

Read offset correction : 667
Overread into Lead-In and Lead-Out : No
Fill up missing offset samples with silence : Yes
Delete leading and trailing silent blocks : No
Null samples used in CRC calculations : Yes
Used interface : Installed external ASPI interface

Used output format : User Defined Encoder
Selected bitrate : 128 kBit/s
Quality : High
Add ID3 tag : Yes
Command line compressor : G:\Program Files (x86)\Exact Audio Copy\Flac\flac.exe
Additional command line options : -V -8 -T “Date=%year%” -T “Genre=%genre%” %source%

TOC of the extracted CD

Track | Start | Length | Start sector | End sector
———————————————————
1 | 0:00.00 | 4:16.67 | 0 | 19266
2 | 4:16.67 | 3:33.15 | 19267 | 35256
3 | 7:50.07 | 5:05.37 | 35257 | 58168
4 | 12:55.44 | 4:12.54 | 58169 | 77122
5 | 17:08.23 | 4:27.39 | 77123 | 97186
6 | 21:35.62 | 4:07.18 | 97187 | 115729
7 | 25:43.05 | 3:17.43 | 115730 | 130547
8 | 29:00.48 | 6:32.65 | 130548 | 160012
9 | 35:33.38 | 4:18.59 | 160013 | 179421
10 | 39:52.22 | 4:32.13 | 179422 | 199834
11 | 44:24.35 | 5:08.19 | 199835 | 222953
12 | 49:32.54 | 3:12.16 | 222954 | 237369
13 | 52:44.70 | 4:06.27 | 237370 | 255846
14 | 56:51.22 | 6:29.74 | 255847 | 285095

Range status and errors

Selected range

Filename D:\MUSIC\Climax Blues Band – Broke Heart Blues.wav

Peak level 98.8 %
Extraction speed 4.9 X
Range quality 100.0 %
Test CRC D7CEB371
Copy CRC D7CEB371
Copy OK

No errors occurred

AccurateRip summary

Track 1 not present in database
Track 2 not present in database
Track 3 not present in database
Track 4 not present in database
Track 5 not present in database
Track 6 not present in database
Track 7 not present in database
Track 8 not present in database
Track 9 not present in database
Track 10 not present in database
Track 11 not present in database
Track 12 not present in database
Track 13 not present in database
Track 14 not present in database

None of the tracks are present in the AccurateRip database

End of status report

==== Log checksum 22AE3B08A8D262A3F4E0DAE23E394A161219B439092E94059CA8491893EBF40D ====

CUETools 2.1.5
[CUETools log; Date: 4/9/2015 2:02:42 AM; Version: 2.1.5]
[CTDB TOCID: 07zjc9XZQ.MijDJdoeZ2fzvPoms-] disk not present in database.
[AccurateRip ID: 001fa4da-01538b03-c90ed90e] disk not present in database.

Track Peak [ CRC32 ] [W/O NULL] [ LOG ]
— 98.8 [D7CEB371] [08ED68D4] CRC32
01 96.6 [D3B8BF54] [5F3C0F71]
02 96.6 [9234C2F7] [F786D6B8]
03 96.6 [5482599E] [100CBDD9]
04 96.6 [92A27F8E] [FA369637]
05 96.6 [91816D73] [3F9B52F2]
06 96.6 [5DFBFC6C] [6A28FD19]
07 96.6 [52B1EAFB] [6BEA3304]
08 96.6 [351290AE] [55E1E13B]
09 96.6 [593AA655] [23C9B067]
10 96.6 [D0137D9E] [C968A2A0]
11 96.6 [28605F1C] [DB7CAF13]
12 96.6 [E4B8BA25] [9DB40143]
13 96.6 [508B32A3] [F44A3D95]
14 98.8 [6424DE60] [C1C4610E]

Back & CD label

imagebam.com imagebam.com

Download From
 
LMA__CBB.BHB.2015.rar
 
Password: www.LosslessMA.net
 
If you encounter broken links or other problem about this publication, please let me know
and write your comment below. I will reply and fix as soon as possible.