Joe Bonamassa – Muddy Wolf At Red Rocks (2015)

Joe Bonamassa - Muddy Wolf At Red Rocks (2015)

Joe Bonamassa – Muddy Wolf At Red Rocks (2015)
EAC Rip | 2xCD | FLAC Tracks + Cue + Log | Full Scans @300 dpi, JPG
FLAC: 826 MB | Scans: 36.9 MB | 3% RAR Recovery
Label: J&R Aventures | Cat#: JRA53557 | Genre: Blues Rock

Guitar Hero Joe Bonamassa performs an exclusive event concert experience at Red Rocks Amphitheater celebrating the music of blues legends Muddy Waters and Howlin Wolf.

Additional Info:
• Released Date: March 23, 2015

Disc 1 – Muddy
01. We Went down to the Mississippi Delta. – 02:51
02. Muddy Waters Talking – 01:05
03. Tiger In Your Tank – 04:30
04. I Can’t Be Satisfied – 04:38
05. You Shook Me – 07:38
06. Stuff You Gotta Watch – 05:09
07. Double Trouble – 07:30
08. Real Love – 03:17
09. My Home Is On The Delta – 06:53
10. All Aboard – 07:19

Disc 2 – Wolf & Joe
01. Howlin’ Wolf Talking – 00:42
02. How Many More Years – 06:38
03. Shake For Me – 05:13
04. Hidden Charms – 03:14
05. Spoonful – 08:00
06. Killing Floor – 03:33
07. Evil (Is Going On) – 06:29
08. All Night Boogie (All Night Long) – 05:47
09. Hey Baby (New Rising Sun) – 01:12
10. Oh Beautiful! – 06:15
11. Love Ain’t A Love Song – 05:48
12. Sloe Gin – 09:26
13. The Ballad of John Henry – 08:18
14. Mississippi Heartbeat (Opening Title) – 02:47
15. Muddy Wolf (Credits) – 03:12

EAC Logs
EAC Log Disc 1

Exact Audio Copy V1.0 beta 4 from 7. December 2014

EAC extraction logfile from 28. March 2015, 22:46

Joe Bonamassa / Muddy Wolf At Red Rocks

Used drive : SONY CD-RW CRX210E1 Adapter: 1 ID: 1

Read mode : Secure
Utilize accurate stream : Yes
Defeat audio cache : Yes
Make use of C2 pointers : No

Read offset correction : 6
Overread into Lead-In and Lead-Out : No
Fill up missing offset samples with silence : Yes
Delete leading and trailing silent blocks : No
Null samples used in CRC calculations : Yes
Used interface : Native Win32 interface for Win NT & 2000
Gap handling : Appended to previous track

Used output format : User Defined Encoder
Selected bitrate : 896 kBit/s
Quality : High
Add ID3 tag : No
Command line compressor : C:\Program Files\Exact Audio Copy\Flac\flac.exe
Additional command line options : -8 -V -T "ARTIST=%artist%" -T "TITLE=%title%" -T "ALBUM=%albumtitle%" -T "DATE=%year%" -T "TRACKNUMBER=%tracknr%" -T "TOTALTRACKS=%numtracks%" -T "GENRE=%genre%" -T "ALBUMARTIST=%albumartist%" -T "ALBUM ARTIST=%albumartist%" -T "COMMENT=EAC Secure Mode, Test & Copy, AccurateRip, FLAC -8" %source%

TOC of the extracted CD

Track | Start | Length | Start sector | End sector
---------------------------------------------------------
1 | 0:00.00 | 2:50.74 | 0 | 12823
2 | 2:50.74 | 1:04.49 | 12824 | 17672
3 | 3:55.48 | 4:30.19 | 17673 | 37941
4 | 8:25.67 | 4:37.59 | 37942 | 58775
5 | 13:03.51 | 7:38.13 | 58776 | 93138
6 | 20:41.64 | 5:08.69 | 93139 | 116307
7 | 25:50.58 | 7:30.04 | 116308 | 150061
8 | 33:20.62 | 3:16.64 | 150062 | 164825
9 | 36:37.51 | 6:52.52 | 164826 | 195777
10 | 43:30.28 | 7:19.19 | 195778 | 228721

Track 1

Filename E:\Joe B - Red Rocks (2015) [FLAC]\CD1\01 - We Went down to the Mississippi Delta..wav

Pre-gap length 0:00:02.00

Peak level 98.9 %
Extraction speed 7.7 X
Track quality 99.9 %
Test CRC 03AD5D5B
Copy CRC 03AD5D5B
Track not present in AccurateRip database
Copy OK

Track 2

Filename E:\Joe B - Red Rocks (2015) [FLAC]\CD1\02 - Muddy Waters Talking.wav

Peak level 100.0 %
Extraction speed 9.5 X
Track quality 100.0 %
Test CRC 9F61DB1A
Copy CRC 9F61DB1A
Track not present in AccurateRip database
Copy OK

Track 3

Filename E:\Joe B - Red Rocks (2015) [FLAC]\CD1\03 - Tiger In Your Tank.wav

Peak level 100.0 %
Extraction speed 9.5 X
Track quality 99.9 %
Test CRC 9F907939
Copy CRC 9F907939
Track not present in AccurateRip database
Copy OK

Track 4

Filename E:\Joe B - Red Rocks (2015) [FLAC]\CD1\04 - I Can't Be Satisfied.wav

Peak level 100.0 %
Extraction speed 12.5 X
Track quality 100.0 %
Test CRC 3581EF63
Copy CRC 3581EF63
Track not present in AccurateRip database
Copy OK

Track 5

Filename E:\Joe B - Red Rocks (2015) [FLAC]\CD1\05 - You Shook Me.wav

Peak level 100.0 %
Extraction speed 12.2 X
Track quality 99.9 %
Test CRC 539C5D27
Copy CRC 539C5D27
Track not present in AccurateRip database
Copy OK

Track 6

Filename E:\Joe B - Red Rocks (2015) [FLAC]\CD1\06 - Stuff You Gotta Watch.wav

Peak level 100.0 %
Extraction speed 14.2 X
Track quality 100.0 %
Test CRC D0D37DF1
Copy CRC D0D37DF1
Track not present in AccurateRip database
Copy OK

Track 7

Filename E:\Joe B - Red Rocks (2015) [FLAC]\CD1\07 - Double Trouble.wav

Peak level 100.0 %
Extraction speed 15.1 X
Track quality 100.0 %
Test CRC 7B23CA65
Copy CRC 7B23CA65
Track not present in AccurateRip database
Copy OK

Track 8

Filename E:\Joe B - Red Rocks (2015) [FLAC]\CD1\08 - Real Love.wav

Peak level 100.0 %
Extraction speed 12.2 X
Track quality 99.9 %
Test CRC 3D0088AF
Copy CRC 3D0088AF
Track not present in AccurateRip database
Copy OK

Track 9

Filename E:\Joe B - Red Rocks (2015) [FLAC]\CD1\09 - My Home Is On The Delta.wav

Peak level 100.0 %
Extraction speed 16.0 X
Track quality 100.0 %
Test CRC ED8D4618
Copy CRC ED8D4618
Track not present in AccurateRip database
Copy OK

Track 10

Filename E:\Joe B - Red Rocks (2015) [FLAC]\CD1\10 - All Aboard.wav

Peak level 100.0 %
Extraction speed 12.5 X
Track quality 99.9 %
Test CRC 29936D09
Copy CRC 29936D09
Track not present in AccurateRip database
Copy OK

None of the tracks are present in the AccurateRip database

No errors occurred

End of status report

---- CUETools DB Plugin V2.1.4

[CTDB TOCID: WQeKjvjyd8r9XzI454xTWxmcHcY-] found
Submit result: WQeKjvjyd8r9XzI454xTWxmcHcY- has been confirmed
Track | CTDB Status
1 | (3/3) Accurately ripped
2 | (3/3) Accurately ripped
3 | (3/3) Accurately ripped
4 | (3/3) Accurately ripped
5 | (3/3) Accurately ripped
6 | (3/3) Accurately ripped
7 | (3/3) Accurately ripped
8 | (3/3) Accurately ripped
9 | (3/3) Accurately ripped
10 | (3/3) Accurately ripped

==== Log checksum B96BF63A36AB20B1ECA463FED97933F0C378063AE5B231F64C8BA0ED98D36F5E ====
[_/su_spoiler]

EAC Log Disc 2

Exact Audio Copy V1.0 beta 4 from 7. December 2014

EAC extraction logfile from 29. March 2015, 0:57

Joe Bonamassa / Muddy Wolf At Red Rocks

Used drive : SONY CD-RW CRX210E1 Adapter: 1 ID: 1

Read mode : Secure
Utilize accurate stream : Yes
Defeat audio cache : Yes
Make use of C2 pointers : No

Read offset correction : 6
Overread into Lead-In and Lead-Out : No
Fill up missing offset samples with silence : Yes
Delete leading and trailing silent blocks : No
Null samples used in CRC calculations : Yes
Used interface : Native Win32 interface for Win NT & 2000
Gap handling : Appended to previous track

Used output format : User Defined Encoder
Selected bitrate : 896 kBit/s
Quality : High
Add ID3 tag : No
Command line compressor : C:\Program Files\Exact Audio Copy\Flac\flac.exe
Additional command line options : -8 -V -T "ARTIST=%artist%" -T "TITLE=%title%" -T "ALBUM=%albumtitle%" -T "DATE=%year%" -T "TRACKNUMBER=%tracknr%" -T "TOTALTRACKS=%numtracks%" -T "GENRE=%genre%" -T "ALBUMARTIST=%albumartist%" -T "ALBUM ARTIST=%albumartist%" -T "COMMENT=EAC Secure Mode, Test & Copy, AccurateRip, FLAC -8" %source%

TOC of the extracted CD

Track | Start | Length | Start sector | End sector
---------------------------------------------------------
1 | 0:00.00 | 0:41.62 | 0 | 3136
2 | 0:41.62 | 6:38.23 | 3137 | 33009
3 | 7:20.10 | 5:12.47 | 33010 | 56456
4 | 12:32.57 | 3:14.37 | 56457 | 71043
5 | 15:47.19 | 7:59.50 | 71044 | 107018
6 | 23:46.69 | 3:33.04 | 107019 | 122997
7 | 27:19.73 | 6:28.61 | 122998 | 152158
8 | 33:48.59 | 5:47.22 | 152159 | 178205
9 | 39:36.06 | 1:11.67 | 178206 | 183597
10 | 40:47.73 | 6:15.13 | 183598 | 211735
11 | 47:03.11 | 5:48.37 | 211736 | 237872
12 | 52:51.48 | 9:26.11 | 237873 | 280333
13 | 62:17.59 | 8:17.54 | 280334 | 317662
14 | 70:35.38 | 2:46.70 | 317663 | 330182
15 | 73:22.33 | 3:12.19 | 330183 | 344601

Track 1

Filename E:\Joe B - Red Rocks (2015) [FLAC]\CD2\01 - Howlin' Wolf Talking.wav

Pre-gap length 0:00:02.00

Peak level 100.0 %
Extraction speed 2.8 X
Track quality 99.7 %
Test CRC 5FE4217D
Copy CRC 5FE4217D
Track not present in AccurateRip database
Copy OK

Track 2

Filename E:\Joe B - Red Rocks (2015) [FLAC]\CD2\02 - How Many More Years.wav

Peak level 100.0 %
Extraction speed 5.2 X
Track quality 100.0 %
Test CRC 7B764231
Copy CRC 7B764231
Track not present in AccurateRip database
Copy OK

Track 3

Filename E:\Joe B - Red Rocks (2015) [FLAC]\CD2\03 - Shake For Me.wav

Peak level 100.0 %
Extraction speed 4.9 X
Track quality 100.0 %
Test CRC A1962FA7
Copy CRC A1962FA7
Track not present in AccurateRip database
Copy OK

Track 4

Filename E:\Joe B - Red Rocks (2015) [FLAC]\CD2\04 - Hidden Charms.wav

Peak level 100.0 %
Extraction speed 4.8 X
Track quality 100.0 %
Test CRC 97ECF326
Copy CRC 97ECF326
Track not present in AccurateRip database
Copy OK

Track 5

Filename E:\Joe B - Red Rocks (2015) [FLAC]\CD2\05 - Spoonful.wav

Peak level 100.0 %
Extraction speed 4.8 X
Track quality 100.0 %
Test CRC BC129516
Copy CRC BC129516
Track not present in AccurateRip database
Copy OK

Track 6

Filename E:\Joe B - Red Rocks (2015) [FLAC]\CD2\06 - Killing Floor.wav

Peak level 100.0 %
Extraction speed 5.0 X
Track quality 100.0 %
Test CRC 37C85068
Copy CRC 37C85068
Track not present in AccurateRip database
Copy OK

Track 7

Filename E:\Joe B - Red Rocks (2015) [FLAC]\CD2\07 - Evil (Is Going On).wav

Peak level 100.0 %
Extraction speed 5.4 X
Track quality 100.0 %
Test CRC BBFE19C7
Copy CRC BBFE19C7
Track not present in AccurateRip database
Copy OK

Track 8

Filename E:\Joe B - Red Rocks (2015) [FLAC]\CD2\08 - All Night Boogie (All Night Long).wav

Peak level 100.0 %
Extraction speed 5.1 X
Track quality 100.0 %
Test CRC 708D0965
Copy CRC 708D0965
Track not present in AccurateRip database
Copy OK

Track 9

Filename E:\Joe B - Red Rocks (2015) [FLAC]\CD2\09 - Hey Baby (New Rising Sun).wav

Peak level 100.0 %
Extraction speed 5.2 X
Track quality 100.0 %
Test CRC F1F23859
Copy CRC F1F23859
Track not present in AccurateRip database
Copy OK

Track 10

Filename E:\Joe B - Red Rocks (2015) [FLAC]\CD2\10 - Oh Beautiful!.wav

Peak level 100.0 %
Extraction speed 4.5 X
Track quality 99.9 %
Test CRC B311D192
Copy CRC B311D192
Track not present in AccurateRip database
Copy OK

Track 11

Filename E:\Joe B - Red Rocks (2015) [FLAC]\CD2\11 - Love Ain't A Love Song.wav

Peak level 100.0 %
Extraction speed 5.2 X
Track quality 100.0 %
Test CRC A913CE4E
Copy CRC A913CE4E
Track not present in AccurateRip database
Copy OK

Track 12

Filename E:\Joe B - Red Rocks (2015) [FLAC]\CD2\12 - Sloe Gin.wav

Peak level 100.0 %
Extraction speed 4.9 X
Track quality 100.0 %
Test CRC A76F8ACC
Copy CRC A76F8ACC
Track not present in AccurateRip database
Copy OK

Track 13

Filename E:\Joe B - Red Rocks (2015) [FLAC]\CD2\13 - The Ballad of John Henry.wav

Peak level 100.0 %
Extraction speed 5.0 X
Track quality 100.0 %
Test CRC 8C7B248A
Copy CRC 8C7B248A
Track not present in AccurateRip database
Copy OK

Track 14

Filename E:\Joe B - Red Rocks (2015) [FLAC]\CD2\14 - Mississippi Heartbeat (Opening Title).wav

Pre-gap length 0:00:01.09

Peak level 98.5 %
Extraction speed 5.1 X
Track quality 100.0 %
Test CRC 17DEF2C3
Copy CRC 17DEF2C3
Track not present in AccurateRip database
Copy OK

Track 15

Filename E:\Joe B - Red Rocks (2015) [FLAC]\CD2\15 - Muddy Wolf (Credits).wav

Peak level 85.0 %
Extraction speed 1.9 X
Track quality 99.9 %
Test CRC DD1E9F3C
Copy CRC DD1E9F3C
Track not present in AccurateRip database
Copy OK

None of the tracks are present in the AccurateRip database

No errors occurred

End of status report

---- CUETools DB Plugin V2.1.4

[CTDB TOCID: uwJppRcLEY4n0.Cd8ZXmip4YHHg-] found
Submit result: uwJppRcLEY4n0.Cd8ZXmip4YHHg- has been confirmed
Track | CTDB Status
1 | (16/16) Accurately ripped
2 | (16/16) Accurately ripped
3 | (16/16) Accurately ripped
4 | (16/16) Accurately ripped
5 | (16/16) Accurately ripped
6 | (16/16) Accurately ripped
7 | (16/16) Accurately ripped
8 | (16/16) Accurately ripped
9 | (16/16) Accurately ripped
10 | (16/16) Accurately ripped
11 | (16/16) Accurately ripped
12 | (16/16) Accurately ripped
13 | (16/16) Accurately ripped
14 | (16/16) Accurately ripped
15 | ( 3/16) Accurately ripped, or (13/16) differs in 73 samples @03:04:07-03:04:18
If you are sure that your rip contains errors, you can use CUETools to repair it.

==== Log checksum 7BF71D66E341713DF30BCE5CF89A665928062AD67A69A23E8B1328032D4E20BD ====
[_/su_spoiler]

CUETools 2.1.5 Logs
CUETools 2.1.5 Disc 1

[CUETools log; Date: 4/8/2015 6:55:20 AM; Version: 2.1.5]
[CTDB TOCID: WQeKjvjyd8r9XzI454xTWxmcHcY-] found.
Track | CTDB Status
1 | (9/9) Accurately ripped
2 | (9/9) Accurately ripped
3 | (9/9) Accurately ripped
4 | (9/9) Accurately ripped
5 | (9/9) Accurately ripped
6 | (9/9) Accurately ripped
7 | (9/9) Accurately ripped
8 | (9/9) Accurately ripped
9 | (9/9) Accurately ripped
10 | (9/9) Accurately ripped
[AccurateRip ID: 00106b52-008a2aee-730be90a] disk not present in database.

Track Peak [ CRC32 ] [W/O NULL] [ LOG ]
-- 100.0 [FE5B9AED] [A6E4E676]
01 98.9 [03AD5D5B] [CDD08B91] CRC32
02 100.0 [9F61DB1A] [5D0B0E57] CRC32
03 100.0 [9F907939] [D064B627] CRC32
04 100.0 [3581EF63] [CA2A1BB6] CRC32
05 100.0 [539C5D27] [4EDB2BC7] CRC32
06 100.0 [D0D37DF1] [1B9DEE84] CRC32
07 100.0 [7B23CA65] [4144F0F9] CRC32
08 100.0 [3D0088AF] [7D56814A] CRC32
09 100.0 [ED8D4618] [E179DFC8] CRC32
10 100.0 [29936D09] [395A18FC] CRC32
[_/su_spoiler]

CUETools 2.1.5 Disc 2

[CUETools log; Date: 4/8/2015 6:55:49 AM; Version: 2.1.5]
[CTDB TOCID: uwJppRcLEY4n0.Cd8ZXmip4YHHg-] found.
Track | CTDB Status
1 | (36/36) Accurately ripped
2 | (36/36) Accurately ripped
3 | (36/36) Accurately ripped
4 | (36/36) Accurately ripped
5 | (36/36) Accurately ripped
6 | (36/36) Accurately ripped
7 | (36/36) Accurately ripped
8 | (36/36) Accurately ripped
9 | (36/36) Accurately ripped
10 | (36/36) Accurately ripped
11 | (36/36) Accurately ripped
12 | (36/36) Accurately ripped
13 | (36/36) Accurately ripped
14 | (36/36) Accurately ripped
15 | ( 9/36) Accurately ripped, or (27/36) differs in 73 samples @03:04:07-03:04:18
[AccurateRip ID: 00282183-01d2bce4-d111f20f] disk not present in database.

Track Peak [ CRC32 ] [W/O NULL] [ LOG ]
-- 100.0 [8346FD0C] [184D6FD4]
01 100.0 [5FE4217D] [695B3994] CRC32
02 100.0 [7B764231] [56F3D06F] CRC32
03 100.0 [A1962FA7] [48CCA2CB] CRC32
04 100.0 [97ECF326] [700E6B22] CRC32
05 100.0 [BC129516] [44B3F2B6] CRC32
06 100.0 [37C85068] [E10A3E66] CRC32
07 100.0 [BBFE19C7] [5C813224] CRC32
08 100.0 [708D0965] [D0878391] CRC32
09 100.0 [F1F23859] [1AE9AE81] CRC32
10 100.0 [B311D192] [0C22AA4B] CRC32
11 100.0 [A913CE4E] [16BA345A] CRC32
12 100.0 [A76F8ACC] [AF572E2B] CRC32
13 100.0 [8C7B248A] [E91B7C77] CRC32
14 98.5 [17DEF2C3] [C54458CB] CRC32
15 85.0 [DD1E9F3C] [43DE5000] CRC32
[_/su_spoiler]

Back & CD label

imagebam.com imagebam.com imagebam.com

Download From
 
LMA_JoBo.2015.MWARR_CD1.rar
LMA_JoBo.2015.MWARR_CD2.rar
LMA_JoBo.2015.MWARR_Scans.rar
 
Password: www.LosslessMA.net
 
If you encounter broken links or other problem about this publication, please let me know
and write your comment below. I will reply and fix as soon as possible.