Pat Travers – Retro Rocket (2015)

Pat Travers - Retro Rocket (2015)

Pat Travers – Retro Rocket (2015)
EAC Rip | FLAC Image + Cue + Log | Full Scans @600 dpi, JPG, Included
FLAC: 450 MB | 3% RAR Recovery
Label: Purple Pyramid | Cat#: CLP-1948-2 | Genre: Blues Rock

Legendary guitar slinger Pat Travers blasts off with a brand new album featuring Travers trademark smoking hot licks, powerful vocal performances, and just plain kick ass, foot stomping rock & roll!

Retro Rocket, as its name suggests, finds Travers digging deep into the early years of his outstanding career, finding inspiration in the fiery grooves of 1978 s Heat In The Street and, of course, his monumental 1979 live album Go For What You Know!

Personnel / Credits:
• Pat Travers – vocals & guitars (All tracks)
• Jürgen Engler – guitars (tracks 1-6)
• Scott Telles – bass (tracks 1-6)
• Lisa-Cameron – drums (tracks 1-6)
• Sean Shannon – drums (tracks 7-10)
• Brian Kinsey – vocals (tracks 7 & 8)
• Neil Carpenter – bass (tracks 7 & 8)
• Joe Stump – guitar (tracks 7 & 8)
• Kevin Ryan – bass guitar (track 10)
• The Travettes (Monica Travers, Amanda Travers, Elijah Travers) – backing vocals (track 7)

Additional Info:
• Released Date: 2015

Tracklist:
01. I Always Run – 05:29
02. Searching for a Clue – 05:15
03. Who Can You Turn To – 03:58
04. Up Is Down – 05:18
05. Mystery at the Wrecking Yard – 06:27
06. You Can’t Get Their From Hare – 04:20
07. I Am Alive – 03:31
08. I Wanna Be Free – 04:11
09. Hellbound Train – 04:43
10. Looking Up (Live) – 06:18
11. Lead Me Home (Theme From The Walking Dead) – 02:05


EAC Log

Exact Audio Copy V1.0 beta 3 from 29. August 2011

Отчёт EAC об извлечении, выполненном 17. марта 2015, 21:38

Pat Travers / Retro Rocket

Дисковод: PLEXTOR DVDR PX-880SA Adapter: 1 ID: 0

Режим чтения : Достоверность
Использование точного потока : Да
Отключение кэша аудио : Да
Использование указателей C2 : Нет

Коррекция смещения при чтении : 6
Способность читать области Lead-in и Lead-out : Нет
Заполнение пропущенных сэмплов тишиной : Да
Удаление блоков с тишиной в начале и конце : Нет
При вычислениях CRC использовались нулевые сэмплы : Да
Интерфейс : Установленный внешний ASPI-интерфейс

Выходной формат : Пользовательский кодировщик
Выбранный битрейт : 1024 kBit/s
Качество : Высокий
Добавление ID3-тега : Нет
Утилита сжатия : C:\Program Files\Exact Audio Copy\FLAC\FLAC.EXE
Дополнительные параметры : -10 -V -T “ARTIST=%artist%” -T “ALBUM=%albumtitle%” -T “DATE=%year%” -T “GENRE=%genre%” -T “COMMENT=ripped by izia1956” %source%

TOC извлечённого CD

Трек | Старт | Длительность | Начальный сектор | Конечный сектор
———————————————————————
1 | 0:00.00 | 5:29.72 | 0 | 24746
2 | 5:29.72 | 5:15.74 | 24747 | 48445
3 | 10:45.71 | 3:58.47 | 48446 | 66342
4 | 14:44.43 | 5:18.70 | 66343 | 90262
5 | 20:03.38 | 6:27.67 | 90263 | 119354
6 | 26:31.30 | 4:20.04 | 119355 | 138858
7 | 30:51.34 | 3:31.35 | 138859 | 154718
8 | 34:22.69 | 4:11.69 | 154719 | 173612
9 | 38:34.63 | 4:43.31 | 173613 | 194868
10 | 43:18.19 | 6:18.66 | 194869 | 223284
11 | 49:37.10 | 2:06.00 | 223285 | 232734

Характеристики диапазона извлечения и сообщения об ошибках

Выбранный диапазон

Имя файла D:\BitComet\Pat Travers – Retro Rocket (2015)\Pat Travers – Retro Rocket.wav

Пиковый уровень 100.0 %
Скорость извлечения 2.9 X
Качество диапазона 100.0 %
CRC теста 70DE7AA4
CRC копии 70DE7AA4
Копирование… OK

Ошибок не произошло

AccurateRip: сводка

Трек 1 отсутствует в базе данных
Трек 2 отсутствует в базе данных
Трек 3 отсутствует в базе данных
Трек 4 отсутствует в базе данных
Трек 5 отсутствует в базе данных
Трек 6 отсутствует в базе данных
Трек 7 отсутствует в базе данных
Трек 8 отсутствует в базе данных
Трек 9 отсутствует в базе данных
Трек 10 отсутствует в базе данных
Трек 11 отсутствует в базе данных

Ни одного трека нет в базе AccurateRip

Конец отчёта

==== Контрольная сумма отчёта BDB14184ACD615EFF97B1CB53C8D98F90B0035DE28063F4324BE27FE3B3A06D4 ====


CUETools 2.1.5

[CUETools log; Date: 4/8/2015 5:34:19 PM; Version: 2.1.5]
[CTDB TOCID: mRdu0SeLkTRsNygH21_YsVlTi1w-] found.
Track | CTDB Status
1 | (3/3) Accurately ripped
2 | (3/3) Accurately ripped
3 | (3/3) Accurately ripped
4 | (3/3) Accurately ripped
5 | (3/3) Accurately ripped
6 | (3/3) Accurately ripped
7 | (3/3) Accurately ripped
8 | (3/3) Accurately ripped
9 | (3/3) Accurately ripped
10 | (3/3) Accurately ripped
11 | (3/3) Accurately ripped
[AccurateRip ID: 00166362-00c03949-960c1f0b] disk not present in database.

Track Peak [ CRC32 ] [W/O NULL] [ LOG ]
— 100.0 [70DE7AA4] [B2454557] CRC32
01 100.0 [0787CDF8] [E2F63F2D]
02 98.8 [47869903] [8ED9FC88]
03 98.8 [A1E82130] [036036B3]
04 98.8 [E03E4FBF] [44739201]
05 100.0 [DD5F8AD4] [98B13161]
06 98.8 [FA4CD266] [E0054CF0]
07 98.8 [B1C5A42D] [B44C367B]
08 98.8 [44EBE4E2] [D37C5637]
09 100.0 [07927AA3] [A5D68D24]
10 100.0 [15E7FA07] [DFBB731D]
11 98.8 [0E8D228F] [4C3B021E]


Back & CD label

imagebam.com imagebam.com


Download From
 
LMA_PaTr.2015.RR.rar
 
Password: www.LosslessMA.net
 
If you encounter broken links or other problem about this publication, please let me know
and write your comment below. I will reply and fix as soon as possible.