The Beatles – 1962 – 1966 (The Red Album) (1973) {1993, 1st CD Issue}

The Beatles - 1962 - 1966 (The Red Album) (1973) {1993, 1st CD Issue}

The Beatles – 1962 – 1966 (The Red Album) (1973) {1993, 1st CD Issue}
EAC Rip | 2xCD | FLAC Image + Cue + Log | Full Scans @600 dpi, JPG, Included
Size: 443 MB | 3% RAR Recovery
Label: EMI / Apple | Cat#: 0777 7 97036 2 3 | Genre: Classic Rock

1962–1966 (also known as “The Red Album”) is a compilation record of songs by the English rock band The Beatles, spanning the years indicated in the title.

Released with its counterpart 1967–1970 (“The Blue Album”) in 1973, it reached number 3 in the United Kingdom and number 1 in the United States Cashbox albums chart. However, in the US, the official chart was administered by Billboard, where 1962–1966 peaked at number 3, while 1967–1970 reached the top spot. This album was re-released in September 1993 on compact disc, charting at number 3 in the UK.

The album was compiled by Beatles manager Allen Klein. Even though the group had had success with cover versions of songs, most notably with “Twist and Shout”, which made number 2 on the Billboard charts, only songs composed by the Beatles themselves were included. Along with its 1967–1970 counterpart, it compiles every single A-side released by the band in the UK.

As with 1967–1970, this compilation was produced by Apple/EMI at least partially in response to a bootleg collection titled Alpha Omega, which had been sold on television the previous year. Print advertising for the two records made a point of declaring them “the only authorized collection of the Beatles.”

Personnel / Credits:
• John Lennon – vocals, guitars, bass guitar, lap steel guitar
• Paul McCartney – vocals, bass guitar, acoustic guitars, piano, organ, electric piano
• George Harrison – guitars, vocals, sitar, tambura
• Ringo Starr – drums

Additional Info:
• Recorded Date: 11 September 1962–21 June 1966, EMI Studios, London and Pathé Marconi Studios, Paris
• Original Released Date: 2 April 1973
• CD Released Date: 1993
• Producer: George Martin
• More info: Here

Disc 1:
01. Love Me Do – 02:24
02. Please Please Me – 02:03
03. From Me To You – 01:57
04. She Loves You – 02:22
05. I Want To Hold Your Hand – 02:26
06. All My Loving – 02:08
07. Can’t Buy Me Love – 02:13
08. A Hard Day’s Night – 02:34
09. And I Love Her – 02:31
10. Eight Days A Week – 02:45
11. I Feel Fine – 02:19
12. Ticket To Ride – 03:10
13. Yesterday – 02:04

Disc 2
01. Help! – 02:20
02. You’ve Got to Hide Your Love Away – 02:11
03. We Can Work it Out – 02:16
04. Day Tripper – 02:49
05. Drive my Car – 02:27
06. Norweigan Wood (This Bird Has Flown) – 02:05
07. Nowhere Man – 02:44
08. Michelle – 02:42
09. In My Life – 02:27
10. Girl – 02:31
11. Paperback Writer – 02:18
12. Eleanor Rigby – 02:08
13. Yellow Submarine – 02:37

EAC Logs
EAC Log Disc 1

Exact Audio Copy V1.0 beta 3 from 29. August 2011

EAC extraction logfile from 23. August 2013, 16:26

The Beatles / 1962 - 1966 (Disc 1)

Used drive : PLEXTOR DVDR PX-891SA Adapter: 1 ID: 0

Read mode : Secure
Utilize accurate stream : Yes
Defeat audio cache : Yes
Make use of C2 pointers : No

Read offset correction : 6
Overread into Lead-In and Lead-Out : No
Fill up missing offset samples with silence : Yes
Delete leading and trailing silent blocks : No
Null samples used in CRC calculations : Yes
Used interface : Native Win32 interface for Win NT & 2000

Used output format : User Defined Encoder
Selected bitrate : 1024 kBit/s
Quality : High
Add ID3 tag : No
Command line compressor : C:\Program Files\Exact Audio Copy\Flac\flac.exe
Additional command line options : -V -8 -T "Genre=%genre%" -T "Artist=%artist%" -T "Title=%title%" -T "Album=%albumtitle%" -T "Date=%year%" -T "Tracknumber=%tracknr%" -T "Comment=%comment%" %source%

TOC of the extracted CD

Track | Start | Length | Start sector | End sector
---------------------------------------------------------
1 | 0:00.33 | 2:24.12 | 33 | 10844
2 | 2:24.45 | 2:03.18 | 10845 | 20087
3 | 4:27.63 | 1:57.32 | 20088 | 28894
4 | 6:25.20 | 2:22.15 | 28895 | 39559
5 | 8:47.35 | 2:26.50 | 39560 | 50559
6 | 11:14.10 | 2:08.65 | 50560 | 60224
7 | 13:23.00 | 2:13.48 | 60225 | 70247
8 | 15:36.48 | 2:34.27 | 70248 | 81824
9 | 18:11.00 | 2:31.15 | 81825 | 93164
10 | 20:42.15 | 2:45.13 | 93165 | 105552
11 | 23:27.28 | 2:19.57 | 105553 | 116034
12 | 25:47.10 | 3:10.70 | 116035 | 130354
13 | 28:58.05 | 2:04.73 | 130355 | 139727

Range status and errors

Selected range

Filename I:\dafnaplus\Beatles 1962 - 1966\Disc 1\The Beatles - 1962 - 1966 (Disc 1).wav

Peak level 97.7 %
Extraction speed 7.0 X
Range quality 100.0 %
Test CRC 0FCC3C83
Copy CRC 0FCC3C83
Copy OK

No errors occurred

AccurateRip summary

Track 1 accurately ripped (confidence 200) [575DB8D1] (AR v2)
Track 2 accurately ripped (confidence 200) [E8B6DFEA] (AR v2)
Track 3 accurately ripped (confidence 200) [36D55E9D] (AR v2)
Track 4 accurately ripped (confidence 200) [78DC20F4] (AR v2)
Track 5 accurately ripped (confidence 200) [DFAE1961] (AR v2)
Track 6 accurately ripped (confidence 200) [1BB5C564] (AR v2)
Track 7 accurately ripped (confidence 200) [258A8BE3] (AR v2)
Track 8 accurately ripped (confidence 200) [49964883] (AR v2)
Track 9 accurately ripped (confidence 200) [83902391] (AR v2)
Track 10 accurately ripped (confidence 200) [BAE54D8C] (AR v2)
Track 11 accurately ripped (confidence 200) [BD11079F] (AR v2)
Track 12 accurately ripped (confidence 200) [EE47D7C6] (AR v2)
Track 13 accurately ripped (confidence 200) [7F9B5D8D] (AR v2)

All tracks accurately ripped

End of status report

==== Log checksum E09C01B81FD4AF080DC9638C34EAA755FF59758387AC8AFD9727EB91AB06DA7C ====
[_/su_spoiler]

EAC Log Disc 2

Exact Audio Copy V1.0 beta 3 from 29. August 2011

EAC extraction logfile from 23. August 2013, 16:40

The Beatles / 1962 - 1966 (Disc 2)

Used drive : PLEXTOR DVDR PX-891SA Adapter: 1 ID: 0

Read mode : Secure
Utilize accurate stream : Yes
Defeat audio cache : Yes
Make use of C2 pointers : No

Read offset correction : 6
Overread into Lead-In and Lead-Out : No
Fill up missing offset samples with silence : Yes
Delete leading and trailing silent blocks : No
Null samples used in CRC calculations : Yes
Used interface : Native Win32 interface for Win NT & 2000

Used output format : User Defined Encoder
Selected bitrate : 1024 kBit/s
Quality : High
Add ID3 tag : No
Command line compressor : C:\Program Files\Exact Audio Copy\Flac\flac.exe
Additional command line options : -V -8 -T "Genre=%genre%" -T "Artist=%artist%" -T "Title=%title%" -T "Album=%albumtitle%" -T "Date=%year%" -T "Tracknumber=%tracknr%" -T "Comment=%comment%" %source%

TOC of the extracted CD

Track | Start | Length | Start sector | End sector
---------------------------------------------------------
1 | 0:00.33 | 2:20.17 | 33 | 10549
2 | 2:20.50 | 2:11.25 | 10550 | 20399
3 | 4:32.00 | 2:16.08 | 20400 | 30607
4 | 6:48.08 | 2:49.57 | 30608 | 43339
5 | 9:37.65 | 2:27.55 | 43340 | 54419
6 | 12:05.45 | 2:05.18 | 54420 | 63812
7 | 14:10.63 | 2:44.17 | 63813 | 76129
8 | 16:55.05 | 2:42.35 | 76130 | 88314
9 | 19:37.40 | 2:27.00 | 88315 | 99339
10 | 22:04.40 | 2:31.30 | 99340 | 110694
11 | 24:35.70 | 2:18.50 | 110695 | 121094
12 | 26:54.45 | 2:08.03 | 121095 | 130697
13 | 29:02.48 | 2:37.12 | 130698 | 142484

Range status and errors

Selected range

Filename I:\dafnaplus\Beatles 1962 - 1966\Disc 2\The Beatles - 1962 - 1966 (Disc 2).wav

Peak level 97.7 %
Extraction speed 7.1 X
Range quality 100.0 %
Test CRC 7BC02D0A
Copy CRC 7BC02D0A
Copy OK

No errors occurred

AccurateRip summary

Track 1 accurately ripped (confidence 200) [2283D0BD] (AR v2)
Track 2 accurately ripped (confidence 200) [CC2213EA] (AR v2)
Track 3 accurately ripped (confidence 200) [73590816] (AR v2)
Track 4 accurately ripped (confidence 200) [A8D35B97] (AR v2)
Track 5 accurately ripped (confidence 200) [043A644F] (AR v2)
Track 6 accurately ripped (confidence 200) [27B0CD0F] (AR v2)
Track 7 accurately ripped (confidence 200) [D841391C] (AR v2)
Track 8 accurately ripped (confidence 200) [C5181FBC] (AR v2)
Track 9 accurately ripped (confidence 200) [549151DB] (AR v2)
Track 10 accurately ripped (confidence 200) [9E9E7F2A] (AR v2)
Track 11 accurately ripped (confidence 200) [4DC1D1D7] (AR v2)
Track 12 accurately ripped (confidence 200) [417434E6] (AR v2)
Track 13 accurately ripped (confidence 200) [CFD43A7B] (AR v2)

All tracks accurately ripped

End of status report

==== Log checksum DC3EBC0A0844E1BCFA4D7CF65E17F3E464612658ED0469BE0DD7046951CA0135 ====
[_/su_spoiler]

CUETools 2.1.5 Logs
CUETools 2.1.5 Disc 1

[CUETools log; Date: 17.09.2013 18:53:43; Version: 2.1.4]
Pregap length 00:00:33.
[CTDB TOCID: C4b7lwduu7liLp_rEYf4rroph1g-] found.
Track | CTDB Status
1 | (42/46) Accurately ripped
2 | (42/46) Accurately ripped
3 | (41/46) Accurately ripped
4 | (42/46) Accurately ripped
5 | (42/46) Accurately ripped
6 | (42/46) Accurately ripped
7 | (31/46) Accurately ripped, or (11/46) differs in 6 samples @01:44:09
8 | (42/46) Accurately ripped
9 | (42/46) Accurately ripped
10 | (42/46) Accurately ripped
11 | (42/46) Accurately ripped
12 | (42/46) Accurately ripped
13 | (42/46) Accurately ripped
[AccurateRip ID: 000e73ab-0091caef-b907470d] found.
Track [ CRC | V2 ] Status
01 [1e1d25ff|575db8d1] (200+200/803) Accurately ripped
02 [426294d4|e8b6dfea] (200+200/805) Accurately ripped
03 [655c7a88|36d55e9d] (200+200/805) Accurately ripped
04 [7e94e16a|78dc20f4] (200+200/804) Accurately ripped
05 [25721cca|dfae1961] (200+200/804) Accurately ripped
06 [39302445|1bb5c564] (200+200/804) Accurately ripped
07 [5e7aa6ea|258a8be3] (200+200/805) Accurately ripped
08 [6cb6b00a|49964883] (200+200/805) Accurately ripped
09 [f5c4587b|83902391] (200+200/805) Accurately ripped
10 [95927284|bae54d8c] (200+200/803) Accurately ripped
11 [7a169f7d|bd11079f] (200+200/804) Accurately ripped
12 [e24ff940|ee47d7c6] (200+200/804) Accurately ripped
13 [411ec0c2|7f9b5d8d] (200+200/808) Accurately ripped
Offsetted by -1596:
01 [fe62862f] (002/803) Accurately ripped
02 [d1aa33f4] (002/805) Accurately ripped
03 [380365c0] (002/805) Accurately ripped
04 [89060852] (002/804) Accurately ripped
05 [a8be5a26] (002/804) Accurately ripped
06 [3ba61ae1] (002/804) Accurately ripped
07 [cdc28d26] (002/805) Accurately ripped
08 [4fe162ae] (002/805) Accurately ripped
09 [84b122e7] (002/805) Accurately ripped
10 [cc0f6894] (002/803) Accurately ripped
11 [8f6a66e1] (002/804) Accurately ripped
12 [793ee96c] (002/804) Accurately ripped
13 [7237b6da] (002/808) Accurately ripped
Offsetted by -1322:
01 [abeeac87] (025/803) Accurately ripped
02 [3067b104] (025/805) Accurately ripped
03 [521593fc] (025/805) Accurately ripped
04 [6b5234a6] (025/804) Accurately ripped
05 [490f4224] (025/804) Accurately ripped
06 [64ee3e7f] (025/804) Accurately ripped
07 [94ccfc14] (025/805) Accurately ripped
08 [37a332b0] (025/805) Accurately ripped
09 [ac50aa2d] (025/805) Accurately ripped
10 [3e36e85c] (025/803) Accurately ripped
11 [ebac8a43] (025/804) Accurately ripped
12 [9de3d892] (025/804) Accurately ripped
13 [3392b506] (025/808) Accurately ripped
Offsetted by -335:
01 [02ec310b] (018/803) Accurately ripped
02 [9b2a8e9c] (019/805) Accurately ripped
03 [2e20e0d6] (019/805) Accurately ripped
04 [617ec1a4] (019/804) Accurately ripped
05 [f7dcbde1] (019/804) Accurately ripped
06 [dcac07ac] (019/804) Accurately ripped
07 [f1aaa039] (019/805) Accurately ripped
08 [e7c8caf3] (019/805) Accurately ripped
09 [3fb77dd6] (019/805) Accurately ripped
10 [9269a108] (019/803) Accurately ripped
11 [e8970b96] (019/804) Accurately ripped
12 [3671c40b] (019/804) Accurately ripped
13 [045e37c8] (019/808) Accurately ripped
Offsetted by -334:
01 [829f27d7] (005/803) Accurately ripped
02 [69fe66e4] (005/805) Accurately ripped
03 [00714b84] (005/805) Accurately ripped
04 [adfff7fe] (005/804) Accurately ripped
05 [aea31c28] (005/804) Accurately ripped
06 [57378143] (005/804) Accurately ripped
07 [37881838] (005/805) Accurately ripped
08 [9ed1e8ac] (005/805) Accurately ripped
09 [f2505da1] (005/805) Accurately ripped
10 [c72680cc] (005/803) Accurately ripped
11 [0f3bb97f] (005/804) Accurately ripped
12 [ae2b5c46] (005/804) Accurately ripped
13 [d83a1cae] (005/808) Accurately ripped
Offsetted by -316:
01 [7d34822f] (002/803) Accurately ripped
02 [f4e39bf4] (002/805) Accurately ripped
03 [ca18cbc0] (002/805) Accurately ripped
04 [0f15ca52] (002/804) Accurately ripped
05 [8895bd26] (002/804) Accurately ripped
06 [f5060de1] (002/804) Accurately ripped
07 [211a8826] (002/805) Accurately ripped
08 [7d75ffae] (002/805) Accurately ripped
09 [811019e7] (002/805) Accurately ripped
10 [7c6e3c94] (002/803) Accurately ripped
11 [c6cff3e1] (002/804) Accurately ripped
12 [1938106c] (002/804) Accurately ripped
13 [bdb034da] (002/808) Accurately ripped
Offsetted by -268:
01 [6ec2c86f] (200/803) Accurately ripped
02 [bc9c2974] (200/805) Accurately ripped
03 [392ccc60] (200/805) Accurately ripped
04 [674ffb32] (200/804) Accurately ripped
05 [cdc76a76] (200/804) Accurately ripped
06 [ef2cda31] (200/804) Accurately ripped
07 [3aa107f6] (200/805) Accurately ripped
08 [cf2b925e] (200/805) Accurately ripped
09 [fdba0ff7] (200/805) Accurately ripped
10 [5fd83154] (200/803) Accurately ripped
11 [05b08f91] (200/804) Accurately ripped
12 [8c049b7c] (200/804) Accurately ripped
13 [76eb1ffa] (200/808) Accurately ripped
Offsetted by -134:
01 [466ff737] (003/803) Accurately ripped
02 [ff7f5f24] (003/805) Accurately ripped
03 [4f44a374] (003/805) Accurately ripped
04 [72f26e4e] (003/804) Accurately ripped
05 [799cc3a0] (003/804) Accurately ripped
06 [142e7f3b] (003/804) Accurately ripped
07 [cc8dd770] (003/805) Accurately ripped
08 [9df12134] (003/805) Accurately ripped
09 [79bf3439] (003/805) Accurately ripped
10 [fab551ec] (003/803) Accurately ripped
11 [3fe39787] (003/804) Accurately ripped
12 [372a4a5e] (003/804) Accurately ripped
13 [5c04f05e] (003/808) Accurately ripped
Offsetted by -98:
01 [3b9aabe7] (004/803) Accurately ripped
02 [1549c944] (004/805) Accurately ripped
03 [e293a3ec] (004/805) Accurately ripped
04 [351e12f6] (004/804) Accurately ripped
05 [2d82059c] (004/804) Accurately ripped
06 [4fcb9877] (004/804) Accurately ripped
07 [9fb2b74c] (004/805) Accurately ripped
08 [5b394f38] (004/805) Accurately ripped
09 [973eacc5] (004/805) Accurately ripped
10 [6544c97c] (004/803) Accurately ripped
11 [af0c0c4b] (004/804) Accurately ripped
12 [0d43b2aa] (004/804) Accurately ripped
13 [26f120b6] (004/808) Accurately ripped
Offsetted by -6:
01 [1feb5d37] (002/803) Accurately ripped
02 [696b8324] (002/805) Accurately ripped
03 [7779fa74] (002/805) Accurately ripped
04 [b38d9b4e] (002/804) Accurately ripped
05 [dccbe720] (002/804) Accurately ripped
06 [59eb4abb] (002/804) Accurately ripped
07 [bb49d6f0] (002/805) Accurately ripped
08 [227ffdb4] (002/805) Accurately ripped
09 [c62f19b9] (002/805) Accurately ripped
10 [592533ec] (002/803) Accurately ripped
11 [923a8c07] (002/804) Accurately ripped
12 [13f667de] (002/804) Accurately ripped
13 [49f7635e] (002/808) Accurately ripped
Offsetted by -12:
01 [21b9946f] (004/803) Accurately ripped
02 [90747174] (005/805) Accurately ripped
03 [89977a60] (000/805) No match (V2 was not tested)
04 [e8865532] (004/804) Accurately ripped
05 [9425b176] (004/804) Accurately ripped
06 [7aa67131] (004/804) Accurately ripped
07 [181906f6] (004/805) Accurately ripped
08 [d8494b5e] (004/805) Accurately ripped
09 [9699daf7] (004/805) Accurately ripped
10 [1cb7f554] (004/803) Accurately ripped
11 [aa5e7891] (004/804) Accurately ripped
12 [459cd67c] (004/804) Accurately ripped
13 [52d005fa] (004/808) Accurately ripped
Offsetted by 6:
01 [1c4eeec7] (000/803) No match
02 [1b59a684] (000/805) No match
03 [533efa9c] (000/805) No match
04 [499c2786] (000/804) No match
05 [6e185274] (000/804) No match
06 [1874fdcf] (000/804) No match
07 [01ab76e4] (000/805) No match
08 [b6ed6260] (000/805) No match
09 [2559973d] (000/805) No match
10 [d1ffb11c] (000/803) No match
11 [61f2b2f3] (000/804) No match
12 [b0a98aa2] (000/804) No match
13 [38461e26] (002/808) Accurately ripped

Track Peak [ CRC32 ] [W/O NULL] [ LOG ]
-- 97,7 [0FCC3C83] [6F9671E1] CRC32
01 82,6 [CF6700D0] [90137947]
02 84,1 [E7398452] [71119EA2]
03 84,5 [F02736C2] [504DF1C5]
04 90,4 [FF92D3B2] [2782A0B8]
05 80,7 [6764430E] [0ECA0C9C]
06 89,8 [696E6414] [6022C67A]
07 97,7 [B767C8CD] [FE9989E9]
08 85,0 [6EE8E4AA] [D236133E]
09 74,8 [EE063AEF] [5939EA68]
10 85,5 [13D3BC91] [DD77282B]
11 86,3 [2F324479] [3D6AFF6A]
12 88,8 [628847B8] [5623C46F]
13 89,1 [DF9F089C] [A25FD1FD]
[_/su_spoiler]

CUETools 2.1.5 Disc 2

[CUETools log; Date: 17.09.2013 18:54:47; Version: 2.1.4]
Pregap length 00:00:33.
[CTDB TOCID: 9oHj1EekC82XkKscrT4uibxgI3o-] found.
Track | CTDB Status
1 | (34/41) Accurately ripped
2 | (35/41) Accurately ripped
3 | (35/41) Accurately ripped
4 | (35/41) Accurately ripped
5 | (34/41) Accurately ripped
6 | (35/41) Accurately ripped
7 | (35/41) Accurately ripped
8 | (35/41) Accurately ripped
9 | (35/41) Accurately ripped
10 | (35/41) Accurately ripped
11 | (35/41) Accurately ripped
12 | (35/41) Accurately ripped
13 | (35/41) Accurately ripped
[AccurateRip ID: 000f22b2-0097ecf8-a7076b0d] found.
Track [ CRC | V2 ] Status
01 [a7acbc69|2283d0bd] (200+200/516) Accurately ripped
02 [3fdf134e|cc2213ea] (200+200/516) Accurately ripped
03 [83afdcf3|73590816] (200+200/515) Accurately ripped
04 [c2fce8ad|a8d35b97] (200+200/516) Accurately ripped
05 [e4145943|043a644f] (200+200/515) Accurately ripped
06 [45667099|27b0cd0f] (200+200/515) Accurately ripped
07 [b42e95ae|d841391c] (200+200/516) Accurately ripped
08 [a505e621|c5181fbc] (200+200/514) Accurately ripped
09 [04967974|549151db] (200+200/515) Accurately ripped
10 [c0edb08c|9e9e7f2a] (200+200/513) Accurately ripped
11 [5994bec6|4dc1d1d7] (200+200/512) Accurately ripped
12 [cfc3f0de|417434e6] (200+200/515) Accurately ripped
13 [f45869f2|cfd43a7b] (200+200/515) Accurately ripped
Offsetted by -1322:
01 [4594e687] (026/516) Accurately ripped
02 [277df232] (026/516) Accurately ripped
03 [db1a269d] (026/515) Accurately ripped
04 [7e6a417d] (027/516) Accurately ripped
05 [f9a6924b] (026/515) Accurately ripped
06 [811e3e37] (026/515) Accurately ripped
07 [ffc16fb6] (026/516) Accurately ripped
08 [105472c5] (026/514) Accurately ripped
09 [1934d7d4] (026/515) Accurately ripped
10 [19074ecc] (026/513) Accurately ripped
11 [7de0f654] (025/512) Accurately ripped
12 [833b9514] (026/515) Accurately ripped
13 [cc4aced6] (027/515) Accurately ripped
Offsetted by -132:
01 [e7141635] (025/516) Accurately ripped
02 [fa6f84f6] (025/516) Accurately ripped
03 [f435a277] (024/515) Accurately ripped
04 [cf816fcd] (024/516) Accurately ripped
05 [15dec913] (024/515) Accurately ripped
06 [b95a9565] (025/515) Accurately ripped
07 [440dff7e] (025/516) Accurately ripped
08 [28929549] (024/514) Accurately ripped
09 [bb830b34] (024/515) Accurately ripped
10 [13b2ab0c] (023/513) Accurately ripped
11 [33c3dbf2] (023/512) Accurately ripped
12 [be71001a] (024/515) Accurately ripped
13 [ad58379a] (024/515) Accurately ripped
Offsetted by -66:
01 [4760694f] (005/516) Accurately ripped
02 [9d274c22] (005/516) Accurately ripped
03 [bbf2bfb5] (005/515) Accurately ripped
04 [c93f2c3d] (005/516) Accurately ripped
05 [7cf9912b] (005/515) Accurately ripped
06 [7f6082ff] (005/515) Accurately ripped
07 [fc1e4a96] (005/516) Accurately ripped
08 [e6cc3db5] (005/514) Accurately ripped
09 [e00cc254] (005/515) Accurately ripped
10 [6a502dcc] (005/513) Accurately ripped
11 [c6ac4d5c] (005/512) Accurately ripped
12 [471a787c] (005/515) Accurately ripped
13 [50d850c6] (005/515) Accurately ripped
Offsetted by -6:
01 [1348b4db] (002/516) Accurately ripped
02 [19ce5e4a] (002/516) Accurately ripped
03 [5a419479] (002/515) Accurately ripped
04 [7dbd1d5d] (002/516) Accurately ripped
05 [4f11e9fb] (002/515) Accurately ripped
06 [61f1898b] (002/515) Accurately ripped
07 [bab8bd66] (002/516) Accurately ripped
08 [7c75055d] (002/514) Accurately ripped
09 [d2b88014] (002/515) Accurately ripped
10 [1625304c] (002/513) Accurately ripped
11 [34f3fa48] (002/512) Accurately ripped
12 [f1e31478] (002/515) Accurately ripped
13 [ce357eee] (002/515) Accurately ripped
Offsetted by 123:
01 [09af5748] (019/516) Accurately ripped
02 [4c359220] (019/516) Accurately ripped
03 [5504aab8] (019/515) Accurately ripped
04 [ce98b095] (019/516) Accurately ripped
05 [52c64287] (019/515) Accurately ripped
06 [7c42f138] (019/515) Accurately ripped
07 [2e1e6772] (019/516) Accurately ripped
08 [649fe5d3] (019/514) Accurately ripped
09 [82dcf1a4] (019/515) Accurately ripped
10 [edfbf5ac] (019/513) Accurately ripped
11 [48747add] (019/512) Accurately ripped
12 [94459709] (019/515) Accurately ripped
13 [02243bc4] (019/515) Accurately ripped
Offsetted by -48:
01 [048c7ff9] (002/516) Accurately ripped
02 [0f596b2e] (002/516) Accurately ripped
03 [383d9923] (002/515) Accurately ripped
04 [98fe8e2d] (002/516) Accurately ripped
05 [3c00df03] (002/515) Accurately ripped
06 [29bf3829] (002/515) Accurately ripped
07 [e87fd36e] (002/516) Accurately ripped
08 [607ee001] (002/514) Accurately ripped
09 [75a6ae74] (002/515) Accurately ripped
10 [6aa9ae8c] (002/513) Accurately ripped
11 [348e9ad6] (000/512) No match (V2 was not tested)
12 [e0bd0dae] (000/515) No match
13 [c34111d2] (000/515) No match
Offsetted by -42:
01 [98f08787] (000/516) No match
02 [356a2032] (000/516) No match
03 [61abe19d] (000/515) No match
04 [de3e597d] (000/516) No match
05 [d1034e4b] (000/515) No match
06 [0d341f37] (000/515) No match
07 [e1f5abb6] (000/516) No match
08 [890fc0c5] (000/514) No match
09 [a784a7d4] (000/515) No match
10 [15722ecc] (000/513) No match
11 [592f5f54] (000/512) No match
12 [be9dea14] (002/515) Accurately ripped
13 [e963fcd6] (000/515) No match (V2 was not tested)
Offsetted by -12:
01 [7ee4ad4d] (000/516) No match (V2 was not tested)
02 [f3bda946] (003/516) Accurately ripped
03 [30d34bff] (003/515) Accurately ripped
04 [387d520d] (003/516) Accurately ripped
05 [ba0f7ab3] (000/515) No match (V2 was not tested)
06 [7e7ca27d] (003/515) Accurately ripped
07 [c142e51e] (003/516) Accurately ripped
08 [53e42499] (003/514) Accurately ripped
09 [a0da86b4] (003/515) Accurately ripped
10 [6b5cb00c] (003/513) Accurately ripped
11 [105335ca] (003/512) Accurately ripped
12 [14023812] (003/515) Accurately ripped
13 [a81293ea] (003/515) Accurately ripped
Offsetted by 6:
01 [3c10c3f7] (000/516) No match (V2 was not tested)
02 [65efc852] (000/516) No match
03 [ad1e256d] (000/515) No match
04 [083cb3fd] (000/516) No match
05 [7916c88b] (000/515) No match
06 [28db57a7] (000/515) No match
07 [ada46df6] (000/516) No match
08 [cd96c6e5] (000/514) No match
09 [367472d4] (000/515) No match
10 [6bb630cc] (000/513) No match
11 [7e358344] (000/512) No match
12 [ada4cd44] (000/515) No match
13 [1a7b54f6] (000/515) No match

Track Peak [ CRC32 ] [W/O NULL] [ LOG ]
-- 97,7 [7BC02D0A] [F89EB47E] CRC32
01 97,7 [9359419E] [85671BCC]
02 97,7 [8D3364AD] [298773D5]
03 85,2 [4367DF96] [DFEFD4A9]
04 97,6 [2AB5EBD6] [DF86A642]
05 97,1 [CECED435] [03A7D348]
06 97,7 [0B50C9CE] [8D798D14]
07 97,7 [E8A32512] [9768F368]
08 66,5 [D2AB4F7F] [62F7940E]
09 97,7 [B80B9229] [8EE54298]
10 97,7 [6A6BC437] [AE7775F7]
11 97,7 [87A94371] [B68D8FC4]
12 69,8 [F37159F2] [EF92C4AB]
13 97,7 [817F7B41] [C30C781C]
[_/su_spoiler]

Back & CD label

DOWNLOAD FROM
 
Nitroflare
LMA__TB.1962-1966.1993.rar
 
Password: www.LosslessMA.net
 
If you encounter broken links or other problem about this publication, please let me know
and write your comment below. I will reply and fix as soon as possible.