The Beatles – Anthology 2 (1996)

The Beatles - Anthology 2 (1996)

The Beatles – Anthology 2 (1996)
EAC Rip | 2xCD | FLAC Image + Cue + Log | Full Scans @600 dpi, JPG, Included
Size: 825 MB | 3% RAR Recovery
Label: EMI / Apple | Cat#: CDP 7243 8 34448 2 3 | Genre: Classic Rock

Anthology 2 is a compilation album by the Beatles, released by Apple Records in March 1996. It is the second of the three-volume Anthology collection, all of which tie-in with the televised special The Beatles Anthology. The opening track is “Real Love”, the second of the two recordings that reunited the Beatles by means of magnetic tape. Like its predecessor, the album topped the Billboard 200 album chart, and has been certified 4× Platinum by the RIAA. The Anthology albums were made available on the iTunes Store on 14 June 2011.

Personnel / Credits:
• John Lennon – vocals, guitars, bass guitar, lap steel guitar
• Paul McCartney – vocals, bass guitar, acoustic guitars, piano, organ, electric piano
• George Harrison – guitars, vocals, sitar, tambura
• Ringo Starr – drums

Additional Info:
• Recorded Date: 16 February 1965 – 6 February 1968; c. 1979 and February 1995
• Released Date: March 18, 1996
• Producer: George Martin, Jeff Lynne, John Lennon, Paul McCartney, George Harrison, Ringo Starr (“Real Love”)
• More info: Here

Disc 1:
01. Real Love – 03:54
02. Yes It Is (Takes 2 & 14) – 01:50
03. I’m Down (Take 1) – 02:53
04. You’ve Got To Hide Your Love Away (Takes 1, 2 & 5) – 02:44
05. If You’ve Got Trouble (Take 1) – 02:48
06. That Means A Lot (Take 1) – 02:26
07. Yesterday (Take 1) – 02:33
08. It’s Only Love (Takes 2 & 3) – 01:58
09. I Feel Fine – 02:15
10. Ticket To Ride – 02:44
11. Yesterday – 02:42
12. Help – 02:54
13. Everybody’s Trying To Be My Baby – 02:45
14. Norwegian Wood (This Bird Has Flown) (Take 1) – 01:59
15. I’m Looking Through You (Take 1) – 02:53
16. 12-Bar Original (Edited Take 2) – 02:55
17. Tomorrow Never Knowns (Take 1) – 03:14
18. Got To Get You Into My Life (Take 5) – 02:54
19. And Your Bird Can Sing (Take 2) – 02:13
20. Taxman (Take 11) – 02:32
21. Eleanor Rigby (Take 14) – 02:06
22. I’m Only Sleeping (Rehearsal) – 00:40
23. I’m Only Sleeping (Take 1) – 02:59
24. Rock And Roll Music – 01:39
25. She’s A Woman – 02:54

Disc 2
01. Strawberry Fields Forever (Demo Sequence) – 01:42
02. Strawberry Fields Forever (Take 1) – 02:34
03. Strawberry Fields Forever (Take 7 And Edit Piece) – 04:13
04. Penny Lane (Take 9 horn overdub) – 03:12
05. A Day In The Life (Takes 1, 2, 6 & orchestra) – 05:04
06. Good Morning Good Morning (Take 8) – 02:40
07. Only A Northern Song (Takes 3 & 12) – 02:43
08. Being For The Benefit Of Mr Kite (Takes 1 And 2) – 01:05
09. Being For The Benefit Of Mr Kite (Take 7 & effects tape) – 02:33
10. Lucy In The Sky With Diamonds (Takes 6, 7 & 8) – 03:05
11. Within You Without You (Instrumental) – 05:27
12. Sgt. Pepper’s Lonely Hearts Club Band (Reprise) (Take 5) – 01:27
13. You Know My Name (Look Up The Number) – 05:43
14. I Am The Walrus (Take 16) – 04:01
15. The Fool On The Hill (Demo) – 02:48
16. Your Mother Should Know (Take 27) – 03:02
17. The Fool On The Hill (Take 4) – 03:44
18. Hello Goodbye (Take 16 and overdubs) – 03:17
19. Lady Madonna (Takes 3 & 4) – 02:22
20. Across The Universe (Take 2) – 03:28

EAC Logs
EAC Log Disc 1

Exact Audio Copy V1.0 beta 3 from 29. August 2011

EAC extraction logfile from 6. July 2013, 17:52

The Beatles / Anthology 2 (Disc 1)

Used drive : PLEXTOR DVDR PX-891SA Adapter: 1 ID: 0

Read mode : Secure
Utilize accurate stream : Yes
Defeat audio cache : Yes
Make use of C2 pointers : No

Read offset correction : 6
Overread into Lead-In and Lead-Out : No
Fill up missing offset samples with silence : Yes
Delete leading and trailing silent blocks : No
Null samples used in CRC calculations : Yes
Used interface : Native Win32 interface for Win NT & 2000

Used output format : User Defined Encoder
Selected bitrate : 1024 kBit/s
Quality : High
Add ID3 tag : No
Command line compressor : C:\Program Files\Exact Audio Copy\Flac\flac.exe
Additional command line options : -V -8 -T "Genre=%genre%" -T "Artist=%artist%" -T "Title=%title%" -T "Album=%albumtitle%" -T "Date=%year%" -T "Tracknumber=%tracknr%" -T "Comment=%comment%" %source%

TOC of the extracted CD

Track | Start | Length | Start sector | End sector
---------------------------------------------------------
1 | 0:00.32 | 3:54.00 | 32 | 17581
2 | 3:54.32 | 1:50.28 | 17582 | 25859
3 | 5:44.60 | 2:53.37 | 25860 | 38871
4 | 8:38.22 | 2:44.55 | 38872 | 51226
5 | 11:23.02 | 2:48.10 | 51227 | 63836
6 | 14:11.12 | 2:26.60 | 63837 | 74846
7 | 16:37.72 | 2:33.50 | 74847 | 86371
8 | 19:11.47 | 1:58.38 | 86372 | 95259
9 | 21:10.10 | 2:15.57 | 95260 | 105441
10 | 23:25.67 | 2:44.40 | 105442 | 117781
11 | 26:10.32 | 2:42.53 | 117782 | 129984
12 | 28:53.10 | 2:54.55 | 129985 | 143089
13 | 31:47.65 | 2:45.10 | 143090 | 155474
14 | 34:33.00 | 1:59.30 | 155475 | 164429
15 | 36:32.30 | 2:53.67 | 164430 | 177471
16 | 39:26.22 | 2:55.08 | 177472 | 190604
17 | 42:21.30 | 3:14.37 | 190605 | 205191
18 | 45:35.67 | 2:54.05 | 205192 | 218246
19 | 48:29.72 | 2:13.30 | 218247 | 228251
20 | 50:43.27 | 2:32.15 | 228252 | 239666
21 | 53:15.42 | 2:06.30 | 239667 | 249146
22 | 55:21.72 | 0:40.43 | 249147 | 252189
23 | 56:02.40 | 2:59.12 | 252190 | 265626
24 | 59:01.52 | 1:39.00 | 265627 | 273051
25 | 60:40.52 | 2:54.53 | 273052 | 286154

Range status and errors

Selected range

Filename H:\dafnaplus\Beatles - Anthology 1-3\Anthology 2\Disc 1\The Beatles - Anthology 2 (Disc 1).wav

Peak level 99.4 %
Extraction speed 8.6 X
Range quality 100.0 %
Test CRC 476B160C
Copy CRC 476B160C
Copy OK

No errors occurred

AccurateRip summary

Track 1 accurately ripped (confidence 40) [5E68876B] (AR v2)
Track 2 accurately ripped (confidence 39) [4D4954AB] (AR v2)
Track 3 accurately ripped (confidence 38) [6C0AE4BC] (AR v2)
Track 4 accurately ripped (confidence 38) [32B8514D] (AR v2)
Track 5 accurately ripped (confidence 39) [00295881] (AR v2)
Track 6 accurately ripped (confidence 39) [4814DEFA] (AR v2)
Track 7 accurately ripped (confidence 39) [A647CE27] (AR v2)
Track 8 accurately ripped (confidence 39) [256208F5] (AR v2)
Track 9 accurately ripped (confidence 39) [FDB7626C] (AR v2)
Track 10 accurately ripped (confidence 39) [2DD0A0F5] (AR v2)
Track 11 accurately ripped (confidence 39) [FC6C6260] (AR v2)
Track 12 accurately ripped (confidence 38) [68AF4CF4] (AR v2)
Track 13 accurately ripped (confidence 39) [AAFCD1D6] (AR v2)
Track 14 accurately ripped (confidence 40) [E768FB55] (AR v2)
Track 15 accurately ripped (confidence 40) [3154B0B7] (AR v2)
Track 16 accurately ripped (confidence 39) [57DA8F27] (AR v2)
Track 17 accurately ripped (confidence 40) [38DFA46A] (AR v2)
Track 18 accurately ripped (confidence 39) [F29DB927] (AR v2)
Track 19 accurately ripped (confidence 40) [9186DAC1] (AR v2)
Track 20 accurately ripped (confidence 39) [CB144B3C] (AR v2)
Track 21 accurately ripped (confidence 39) [BBB81048] (AR v2)
Track 22 accurately ripped (confidence 40) [B5EC69F3] (AR v2)
Track 23 accurately ripped (confidence 37) [46B74A66] (AR v2)
Track 24 accurately ripped (confidence 39) [150EC642] (AR v2)
Track 25 accurately ripped (confidence 36) [0E8A90BF] (AR v2)

All tracks accurately ripped

End of status report

==== Log checksum 6763AF5BBAB98775DBEA56E4DA1C6F5BE67B8E476ED0EB9C912535FCD5143CDF ====
[_/su_spoiler]

EAC Log Disc 2

Exact Audio Copy V1.0 beta 3 from 29. August 2011

EAC extraction logfile from 6. July 2013, 18:15

The Beatles / Anthology 2 (Disc 2)

Used drive : PLEXTOR DVDR PX-891SA Adapter: 1 ID: 0

Read mode : Secure
Utilize accurate stream : Yes
Defeat audio cache : Yes
Make use of C2 pointers : No

Read offset correction : 6
Overread into Lead-In and Lead-Out : No
Fill up missing offset samples with silence : Yes
Delete leading and trailing silent blocks : No
Null samples used in CRC calculations : Yes
Used interface : Native Win32 interface for Win NT & 2000

Used output format : User Defined Encoder
Selected bitrate : 1024 kBit/s
Quality : High
Add ID3 tag : No
Command line compressor : C:\Program Files\Exact Audio Copy\Flac\flac.exe
Additional command line options : -V -8 -T "Genre=%genre%" -T "Artist=%artist%" -T "Title=%title%" -T "Album=%albumtitle%" -T "Date=%year%" -T "Tracknumber=%tracknr%" -T "Comment=%comment%" %source%

TOC of the extracted CD

Track | Start | Length | Start sector | End sector
---------------------------------------------------------
1 | 0:00.00 | 1:42.10 | 0 | 7659
2 | 1:42.10 | 2:34.45 | 7660 | 19254
3 | 4:16.55 | 4:13.50 | 19255 | 38279
4 | 8:30.30 | 3:12.50 | 38280 | 52729
5 | 11:43.05 | 5:04.40 | 52730 | 75569
6 | 16:47.45 | 2:40.05 | 75570 | 87574
7 | 19:27.50 | 2:43.72 | 87575 | 99871
8 | 22:11.47 | 1:05.28 | 99872 | 104774
9 | 23:17.00 | 2:33.42 | 104775 | 116291
10 | 25:50.42 | 3:05.53 | 116292 | 130219
11 | 28:56.20 | 5:27.37 | 130220 | 154781
12 | 34:23.57 | 1:27.13 | 154782 | 161319
13 | 35:50.70 | 5:43.17 | 161320 | 187061
14 | 41:34.12 | 4:01.65 | 187062 | 205201
15 | 45:36.02 | 2:48.05 | 205202 | 217806
16 | 48:24.07 | 3:02.20 | 217807 | 231476
17 | 51:26.27 | 3:44.60 | 231477 | 248336
18 | 55:11.12 | 3:17.63 | 248337 | 263174
19 | 58:29.00 | 2:22.05 | 263175 | 273829
20 | 60:51.05 | 3:28.37 | 273830 | 289466

Range status and errors

Selected range

Filename H:\dafnaplus\Beatles - Anthology 1-3\Anthology 2\Disc 2\The Beatles - Anthology 2 (Disc 2).wav

Peak level 99.4 %
Extraction speed 8.5 X
Range quality 100.0 %
Test CRC 2A928D5C
Copy CRC 2A928D5C
Copy OK

No errors occurred

AccurateRip summary

Track 1 accurately ripped (confidence 42) [89D04A57] (AR v2)
Track 2 accurately ripped (confidence 42) [05E85168] (AR v2)
Track 3 accurately ripped (confidence 42) [9F416834] (AR v2)
Track 4 accurately ripped (confidence 41) [0015C68E] (AR v2)
Track 5 accurately ripped (confidence 42) [50395684] (AR v2)
Track 6 accurately ripped (confidence 42) [16166C57] (AR v2)
Track 7 accurately ripped (confidence 42) [6286DE45] (AR v2)
Track 8 accurately ripped (confidence 41) [DB513012] (AR v2)
Track 9 accurately ripped (confidence 42) [BF6D0694] (AR v2)
Track 10 accurately ripped (confidence 41) [E1847248] (AR v2)
Track 11 accurately ripped (confidence 42) [003CF656] (AR v2)
Track 12 accurately ripped (confidence 42) [883C4CD4] (AR v2)
Track 13 accurately ripped (confidence 41) [EB5EB0E0] (AR v2)
Track 14 accurately ripped (confidence 41) [EBFEA8F2] (AR v2)
Track 15 accurately ripped (confidence 41) [1FFA153A] (AR v2)
Track 16 accurately ripped (confidence 41) [795FDCDB] (AR v2)
Track 17 accurately ripped (confidence 36) [8B657E86] (AR v2)
Track 18 accurately ripped (confidence 38) [54038F6F] (AR v2)
Track 19 accurately ripped (confidence 39) [68E40D27] (AR v2)
Track 20 accurately ripped (confidence 34) [48CF93BF] (AR v2)

All tracks accurately ripped

End of status report

==== Log checksum 402E7E6320248CECDCEDF8722AA89FD8A40BA99578B6E65F76D5F240B4FD0C6F ====
[_/su_spoiler]

CUETools 2.1.5 Logs
CUETools 2.1.5 Disc 1

[CUETools log; Date: 17.09.2013 18:59:13; Version: 2.1.4]
Pregap length 00:00:32.
[CTDB TOCID: FEoLb5_P8_fa9XeEIAcE5qyFDQE-] found.
Track | CTDB Status
1 | (23/24) Accurately ripped
2 | (24/24) Accurately ripped
3 | (24/24) Accurately ripped
4 | (24/24) Accurately ripped
5 | (24/24) Accurately ripped
6 | (24/24) Accurately ripped
7 | (24/24) Accurately ripped
8 | (24/24) Accurately ripped
9 | (23/24) Accurately ripped
10 | (23/24) Accurately ripped
11 | (23/24) Accurately ripped
12 | (24/24) Accurately ripped
13 | (24/24) Accurately ripped
14 | (24/24) Accurately ripped
15 | (24/24) Accurately ripped
16 | (24/24) Accurately ripped
17 | (23/24) Accurately ripped
18 | (24/24) Accurately ripped
19 | (24/24) Accurately ripped
20 | (24/24) Accurately ripped
21 | (24/24) Accurately ripped
22 | (24/24) Accurately ripped
23 | (22/24) Accurately ripped
24 | (21/24) Accurately ripped
25 | (23/24) Accurately ripped
[AccurateRip ID: 003ad553-041a5201-6c0ee719] found.
Track [ CRC | V2 ] Status
01 [3111e44d|5e68876b] (200+160/809) Accurately ripped
02 [0443c9ad|4d4954ab] (200+157/802) Accurately ripped
03 [a035443d|6c0ae4bc] (200+155/800) Accurately ripped
04 [2b4f8213|32b8514d] (200+155/800) Accurately ripped
05 [5b7b582e|00295881] (200+158/803) Accurately ripped
06 [9cfae98d|4814defa] (200+158/803) Accurately ripped
07 [c57a17d1|a647ce27] (200+157/801) Accurately ripped
08 [1b62fe66|256208f5] (200+155/800) Accurately ripped
09 [20bd830d|fdb7626c] (200+155/803) Accurately ripped
10 [835f9621|2dd0a0f5] (200+155/804) Accurately ripped
11 [f4a285b7|fc6c6260] (200+157/805) Accurately ripped
12 [45873fe0|68af4cf4] (200+155/797) Accurately ripped
13 [f9a7f4c1|aafcd1d6] (200+155/795) Accurately ripped
14 [d1ef177e|e768fb55] (200+156/798) Accurately ripped
15 [2c815a25|3154b0b7] (200+160/798) Accurately ripped
16 [d5e72c2c|57da8f27] (200+158/800) Accurately ripped
17 [16ac0f8b|38dfa46a] (200+158/800) Accurately ripped
18 [ee37480d|f29db927] (200+155/796) Accurately ripped
19 [c5e8c553|9186dac1] (200+157/795) Accurately ripped
20 [8b22b7f6|cb144b3c] (200+159/795) Accurately ripped
21 [ec8081cb|bbb81048] (200+155/790) Accurately ripped
22 [41642209|b5ec69f3] (200+158/798) Accurately ripped
23 [6e4c8cb4|46b74a66] (200+152/787) Accurately ripped
24 [53ed0885|150ec642] (200+155/797) Accurately ripped
25 [8b37f593|0e8a90bf] (200+143/787) Accurately ripped
Offsetted by -670:
01 [02f08fd9] (011/809) Accurately ripped
02 [14dfb579] (011/802) Accurately ripped
03 [ac566a73] (011/800) Accurately ripped
04 [b39bf7e1] (010/800) Accurately ripped
05 [89d6b870] (011/803) Accurately ripped
06 [cb5c62d9] (010/803) Accurately ripped
07 [59c9a201] (010/801) Accurately ripped
08 [0d723d4c] (010/800) Accurately ripped
09 [11bc7455] (010/803) Accurately ripped
10 [11c2ad6a] (010/804) Accurately ripped
11 [c0796ed5] (010/805) Accurately ripped
12 [be476b69] (010/797) Accurately ripped
13 [dbe3d345] (009/795) Accurately ripped
14 [6a298f4e] (010/798) Accurately ripped
15 [657de43d] (009/798) Accurately ripped
16 [f361d9fc] (010/800) Accurately ripped
17 [278fbd79] (010/800) Accurately ripped
18 [e9d25517] (010/796) Accurately ripped
19 [369d8e71] (010/795) Accurately ripped
20 [9e547d00] (010/795) Accurately ripped
21 [883fd0b3] (009/790) Accurately ripped
22 [d2bde9c3] (009/798) Accurately ripped
23 [08ce3752] (009/787) Accurately ripped
24 [4b75df8f] (009/797) Accurately ripped
25 [89ac32eb] (010/787) Accurately ripped
Offsetted by -669:
01 [db456f7f] (023/809) Accurately ripped
02 [e5167f3f] (023/802) Accurately ripped
03 [162883fe] (023/800) Accurately ripped
04 [6cb820f8] (023/800) Accurately ripped
05 [a4223ce1] (023/803) Accurately ripped
06 [e2378f5f] (023/803) Accurately ripped
07 [e815ee99] (023/801) Accurately ripped
08 [9fceaeaf] (023/800) Accurately ripped
09 [0b99b088] (023/803) Accurately ripped
10 [7015d1f1] (023/804) Accurately ripped
11 [f98e0a9c] (023/805) Accurately ripped
12 [a5240b54] (023/797) Accurately ripped
13 [9c201b27] (023/795) Accurately ripped
14 [df3c93b6] (023/798) Accurately ripped
15 [1ae63509] (023/798) Accurately ripped
16 [92ab6964] (021/800) Accurately ripped
17 [ff08e7a0] (022/800) Accurately ripped
18 [3b36972c] (022/796) Accurately ripped
19 [c4f775b0] (021/795) Accurately ripped
20 [16a8db15] (021/795) Accurately ripped
21 [da8c5467] (021/790) Accurately ripped
22 [add824b0] (021/798) Accurately ripped
23 [90994b51] (021/787) Accurately ripped
24 [fb18912f] (020/797) Accurately ripped
25 [918506a4] (020/787) Accurately ripped
Offsetted by -664:
01 [14edcdbd] (015/809) Accurately ripped
02 [f628701d] (014/802) Accurately ripped
03 [274303b5] (014/800) Accurately ripped
04 [0a44ee6b] (014/800) Accurately ripped
05 [279bd316] (014/803) Accurately ripped
06 [547f6dfd] (014/803) Accurately ripped
07 [af936d91] (014/801) Accurately ripped
08 [7b9ce59e] (014/800) Accurately ripped
09 [e46e5f98] (015/803) Accurately ripped
10 [0557826a] (015/804) Accurately ripped
11 [5a365fab] (015/805) Accurately ripped
12 [0fdf1310] (014/797) Accurately ripped
13 [5d4d8291] (014/795) Accurately ripped
14 [289ba9be] (013/798) Accurately ripped
15 [a5efc905] (014/798) Accurately ripped
16 [af1b366c] (014/800) Accurately ripped
17 [3466ba63] (014/800) Accurately ripped
18 [d22be195] (014/796) Accurately ripped
19 [8cb8f9eb] (014/795) Accurately ripped
20 [704eb17e] (014/795) Accurately ripped
21 [760ae6eb] (012/790) Accurately ripped
22 [f55b4b51] (013/798) Accurately ripped
23 [3790af4c] (012/787) Accurately ripped
24 [21091698] (013/797) Accurately ripped
25 [e4a932ac] (013/787) Accurately ripped
Offsetted by -684:
01 [2e4c54c5] (002/809) Accurately ripped
02 [b1e0aca5] (002/802) Accurately ripped
03 [e2d904d9] (002/800) Accurately ripped
04 [9411b89f] (002/800) Accurately ripped
05 [19b57a42] (002/803) Accurately ripped
06 [8b5ff385] (002/803) Accurately ripped
07 [919d71b1] (002/801) Accurately ripped
08 [0c6409e2] (002/800) Accurately ripped
09 [2af37928] (002/803) Accurately ripped
10 [4a1716f3] (002/804) Accurately ripped
11 [883d390f] (002/805) Accurately ripped
12 [12a19db7] (002/797) Accurately ripped
13 [5897e4e9] (000/795) No match (V2 was not tested)
14 [031f519e] (002/798) Accurately ripped
15 [79c97915] (000/798) No match (V2 was not tested)
16 [3d5c024c] (002/800) Accurately ripped
17 [5eef6f57] (002/800) Accurately ripped
18 [7656b7f1] (002/796) Accurately ripped
19 [6db2e8ff] (002/795) Accurately ripped
20 [09b757da] (002/795) Accurately ripped
21 [08109cdb] (002/790) Accurately ripped
22 [d74eb0cd] (002/798) Accurately ripped
23 [9bb31f60] (002/787) Accurately ripped
24 [eb905127] (002/797) Accurately ripped
25 [5cb6be1d] (002/787) Accurately ripped
Offsetted by -455:
01 [b2386443] (018/809) Accurately ripped
02 [f2e32ac3] (018/802) Accurately ripped
03 [8bc9de30] (018/800) Accurately ripped
04 [2a427a32] (018/800) Accurately ripped
05 [9f42f357] (018/803) Accurately ripped
06 [fd6ec763] (018/803) Accurately ripped
07 [dbddf5a9] (018/801) Accurately ripped
08 [f9157771] (018/800) Accurately ripped
09 [f4a3e225] (000/803) No match
10 [47581064] (000/804) No match
11 [06d0a963] (000/805) No match
12 [5b967de1] (000/797) No match
13 [4e843213] (000/795) No match
14 [bd2242a6] (000/798) No match
15 [c019bf91] (000/798) No match
16 [ba294a54] (000/800) No match
17 [1e52243a] (000/800) No match
18 [4505d4ba] (000/796) No match
19 [c41ec45a] (000/795) No match
20 [ad2f80a3] (000/795) No match
21 [a6826cdf] (000/790) No match
22 [d5c566ce] (000/798) No match
23 [145c027b] (000/787) No match
24 [b7ce919b] (000/797) No match
25 [905d61f2] (000/787) No match
Offsetted by -454:
01 [8a8d43e9] (000/809) No match
02 [c319f489] (000/802) No match
03 [f59bf7bb] (000/800) No match
04 [e35ea349] (000/800) No match
05 [b98e77c8] (000/803) No match
06 [1449f3e9] (000/803) No match
07 [6a2a4241] (000/801) No match
08 [8b71e8d4] (000/800) No match
09 [2f0fa127] (018/803) Accurately ripped
10 [53aca158] (018/804) Accurately ripped
11 [cf8caf66] (018/805) Accurately ripped
12 [3db51ca4] (018/797) Accurately ripped
13 [0ec079f5] (018/795) Accurately ripped
14 [3235470e] (018/798) Accurately ripped
15 [7582105d] (018/798) Accurately ripped
16 [5972d9bc] (018/800) Accurately ripped
17 [f5cb4e61] (018/800) Accurately ripped
18 [966a16cf] (018/796) Accurately ripped
19 [5278ab99] (018/795) Accurately ripped
20 [2583deb8] (018/795) Accurately ripped
21 [f8cef093] (018/790) Accurately ripped
22 [b0dfa1bb] (018/798) Accurately ripped
23 [9c27167a] (017/787) Accurately ripped
24 [81a25d10] (018/797) Accurately ripped
25 [44d0e6fe] (018/787) Accurately ripped
Offsetted by -18:
01 [fb1a2aa1] (000/809) No match (V2 was not tested)
02 [606999c1] (000/802) No match (V2 was not tested)
03 [2f6f7877] (000/800) No match (V2 was not tested)
04 [27549e75] (000/800) No match (V2 was not tested)
05 [822c083c] (000/803) No match (V2 was not tested)
06 [0191c821] (000/803) No match (V2 was not tested)
07 [c41cb521] (000/801) No match (V2 was not tested)
08 [d0e30570] (000/800) No match (V2 was not tested)
09 [9d72924c] (002/803) Accurately ripped
10 [d6e084b0] (002/804) Accurately ripped
11 [9aa7c40f] (002/805) Accurately ripped
12 [3d0f79aa] (000/797) No match (V2 was not tested)
13 [756ae6dd] (000/795) No match (V2 was not tested)
14 [9698c82e] (000/798) No match (V2 was not tested)
15 [6b2babcd] (000/798) No match (V2 was not tested)
16 [a2bb16dc] (000/800) No match (V2 was not tested)
17 [f02718cd] (000/800) No match (V2 was not tested)
18 [352aa293] (000/796) No match (V2 was not tested)
19 [c39682e5] (000/795) No match (V2 was not tested)
20 [15341a7c] (000/795) No match (V2 was not tested)
21 [231f3f23] (000/790) No match (V2 was not tested)
22 [d98bfd5f] (000/798) No match (V2 was not tested)
23 [e20524c6] (000/787) No match (V2 was not tested)
24 [b7d1bb93] (002/797) Accurately ripped
25 [39e1189f] (002/787) Accurately ripped
Offsetted by 140:
01 [7f7c3315] (002/809) Accurately ripped
02 [e23a21f5] (000/802) No match
03 [7f1b3c41] (000/800) No match
04 [66b5faa7] (000/800) No match
05 [bcc7c5fa] (000/803) No match
06 [1cd742d5] (000/803) No match
07 [9733faf1] (000/801) No match
08 [25f1008a] (000/800) No match
09 [39e0c712] (000/803) No match
10 [e44caae5] (000/804) No match
11 [1ad819c7] (000/805) No match
12 [b0cd767f] (000/797) No match
13 [1a9f4459] (000/795) No match
14 [d855805e] (000/798) No match
15 [618d89b5] (000/798) No match
16 [f221990c] (000/800) No match
17 [ecef1cdf] (000/800) No match
18 [710b6b89] (000/796) No match
19 [9f133bc7] (000/795) No match
20 [59462b72] (000/795) No match
21 [ee58883b] (000/790) No match
22 [13bc5ba5] (000/798) No match
23 [b15b7c28] (000/787) No match
24 [7df50363] (000/797) No match
25 [d95ce7ad] (000/787) No match
Offsetted by 354:
01 [566f27d9] (003/809) Accurately ripped
02 [f006cd79] (003/802) Accurately ripped
03 [f4bc9673] (003/800) Accurately ripped
04 [244053e1] (003/800) Accurately ripped
05 [b7e87c70] (003/803) Accurately ripped
06 [380e7ad9] (003/803) Accurately ripped
07 [8afc0201] (003/801) Accurately ripped
08 [7f37c94c] (003/800) Accurately ripped
09 [14e06a0e] (000/803) No match
10 [6758eb62] (000/804) No match
11 [4b36b8ff] (000/805) No match
12 [3003daee] (000/797) No match
13 [cd035b45] (000/795) No match
14 [b63b2f4e] (000/798) No match
15 [06c1143d] (000/798) No match
16 [199f79fc] (000/800) No match
17 [0c385979] (000/800) No match
18 [7adaa917] (000/796) No match
19 [9e3a8a71] (000/795) No match
20 [efccd100] (000/795) No match
21 [ba4ea0b3] (000/790) No match
22 [3ba99dc3] (000/798) No match
23 [351e3352] (000/787) No match
24 [737dab00] (000/797) No match
25 [ad4be4c2] (000/787) No match
Offsetted by 355:
01 [2ec4077f] (000/809) No match
02 [c03d973f] (000/802) No match
03 [5e8eaffe] (000/800) No match
04 [dd5c7cf8] (000/800) No match
05 [d23400e1] (000/803) No match
06 [4ee9a75f] (000/803) No match
07 [19484e99] (000/801) No match
08 [11943aaf] (000/800) No match
09 [7a4a1a6f] (003/803) Accurately ripped
10 [3150edde] (003/804) Accurately ripped
11 [b963c8d3] (003/805) Accurately ripped
12 [6188d371] (003/797) Accurately ripped
13 [8d3fa327] (003/795) Accurately ripped
14 [2b4e33b6] (003/798) Accurately ripped
15 [bc296509] (002/798) Accurately ripped
16 [b8e90964] (003/800) Accurately ripped
17 [e3b183a0] (003/800) Accurately ripped
18 [cc3eeb2c] (003/796) Accurately ripped
19 [2c9471b0] (003/795) Accurately ripped
20 [68212f15] (003/795) Accurately ripped
21 [0c9b2467] (003/790) Accurately ripped
22 [16c3d8b0] (003/798) Accurately ripped
23 [bce94751] (002/787) Accurately ripped
24 [ebbae28a] (003/797) Accurately ripped
25 [b2919821] (002/787) Accurately ripped
Offsetted by 359:
01 [90178617] (002/809) Accurately ripped
02 [0118be57] (002/802) Accurately ripped
03 [05d7162a] (002/800) Accurately ripped
04 [c1cd2154] (002/800) Accurately ripped
05 [3b6212a5] (002/803) Accurately ripped
06 [aa565977] (002/803) Accurately ripped
07 [527980f9] (002/801) Accurately ripped
08 [5b06003b] (002/800) Accurately ripped
09 [a47f99c5] (000/803) No match
10 [43238035] (000/804) No match
11 [1facc051] (000/805) No match
12 [27e9b52e] (000/797) No match
13 [8e30c2af] (000/795) No match
14 [ff9a4556] (000/798) No match
15 [91caa839] (000/798) No match
16 [360f4704] (000/800) No match
17 [41962c3c] (000/800) No match
18 [11cff380] (000/796) No match
19 [65fc0eac] (000/795) No match
20 [4972a769] (000/795) No match
21 [55cd3337] (000/790) No match
22 [832cc464] (000/798) No match
23 [dc15974d] (000/787) No match
24 [4fc43d7b] (000/797) No match
25 [5a92e0e8] (000/787) No match
Offsetted by 360:
01 [686c65bd] (000/809) No match
02 [d14f881d] (000/802) No match
03 [6fa92fb5] (000/800) No match
04 [7ae94a6b] (000/800) No match
05 [55ad9716] (000/803) No match
06 [c13185fd] (000/803) No match
07 [e0c5cd91] (000/801) No match
08 [ed62719e] (000/800) No match
09 [d6569049] (002/803) Accurately ripped
10 [f3ef30c8] (002/804) Accurately ripped
11 [94bca898] (002/805) Accurately ripped
12 [5832ac28] (002/797) Accurately ripped
13 [4e6d0a91] (002/795) Accurately ripped
14 [74ad49be] (002/798) Accurately ripped
15 [4732f905] (002/798) Accurately ripped
16 [d558d66c] (002/800) Accurately ripped
17 [190f5663] (002/800) Accurately ripped
18 [63343595] (002/796) Accurately ripped
19 [f455f5eb] (002/795) Accurately ripped
20 [c1c7057e] (002/795) Accurately ripped
21 [a819b6eb] (002/790) Accurately ripped
22 [5e46ff51] (002/798) Accurately ripped
23 [63e0ab4c] (002/787) Accurately ripped
24 [e5dd9772] (002/797) Accurately ripped
25 [92b2ba1e] (002/787) Accurately ripped
Offsetted by 1023:
01 [ac3b9ca7] (200/809) Accurately ripped
02 [0f3417e7] (200/802) Accurately ripped
03 [7ec956b2] (200/800) Accurately ripped
04 [e2d7b4fc] (200/800) Accurately ripped
05 [6f4197bd] (200/803) Accurately ripped
06 [f2d1d507] (200/803) Accurately ripped
07 [68602b39] (200/801) Accurately ripped
08 [facc1903] (200/800) Accurately ripped
09 [eaefa75e] (000/803) No match
10 [70787581] (000/804) No match
11 [be255a9f] (000/805) No match
12 [3a8e565f] (000/797) No match
13 [2a8b34df] (000/795) No match
14 [a8edb316] (000/798) No match
15 [185c3959] (000/798) No match
16 [5cdb3cc4] (000/800) No match
17 [23db8164] (000/800) No match
18 [2ddb59f8] (000/796) No match
19 [9f2bda14] (000/795) No match
20 [6446ade1] (000/795) No match
21 [cc42ce17] (000/790) No match
22 [cf359b1c] (000/798) No match
23 [12d174b5] (000/787) No match
24 [d9a089f5] (000/797) No match
25 [1d99c946] (000/787) No match
Offsetted by 1024:
01 [84907c4d] (000/809) No match
02 [df6ae1ad] (000/802) No match
03 [e89b703d] (000/800) No match
04 [9bf3de13] (000/800) No match
05 [898d1c2e] (000/803) No match
06 [09ad018d] (000/803) No match
07 [f6ac77d1] (000/801) No match
08 [8d288a66] (000/800) No match
09 [fb32faea] (200/803) Accurately ripped
10 [3a861578] (200/804) Accurately ripped
11 [ebc13b05] (200/805) Accurately ripped
12 [202af962] (200/797) Accurately ripped
13 [eac77cc1] (200/795) Accurately ripped
14 [1e00b77e] (200/798) Accurately ripped
15 [cdc48a25] (200/798) Accurately ripped
16 [fc24cc2c] (200/800) Accurately ripped
17 [fb54ab8b] (200/800) Accurately ripped
18 [7f3f9c0d] (200/796) Accurately ripped
19 [2d85c153] (200/795) Accurately ripped
20 [dc9b0bf6] (200/795) Accurately ripped
21 [1e8f51cb] (200/790) Accurately ripped
22 [aa4fd609] (200/798) Accurately ripped
23 [9a9c88b4] (200/787) Accurately ripped
24 [13cb3794] (200/797) Accurately ripped
25 [0f18495c] (200/787) Accurately ripped
Offsetted by 1030:
01 [968dba31] (000/809) No match
02 [c0b39c51] (000/802) No match
03 [6388097f] (000/800) No match
04 [f29cd49d] (000/800) No match
05 [275236d4] (000/803) No match
06 [92d00cb1] (000/803) No match
07 [4c764361] (000/801) No match
08 [fb5332b8] (000/800) No match
09 [be24f299] (000/803) No match
10 [8f6b6a08] (000/804) No match
11 [b63b3a56] (000/805) No match
12 [8db7d90e] (000/797) No match
13 [6c312c0d] (000/795) No match
14 [dc72d1ee] (000/798) No match
15 [0e366eed] (000/798) No match
16 [b7de289c] (000/800) No match
17 [082ba875] (000/800) No match
18 [6799288b] (000/796) No match
19 [83a12ccd] (000/795) No match
20 [ae954074] (000/795) No match
21 [0c5a6803] (000/790) No match (V2 was not tested)
22 [cced3797] (002/798) Accurately ripped
23 [c95f00ae] (002/787) Accurately ripped
24 [3f8b4459] (002/797) Accurately ripped
25 [b6a40c35] (000/787) No match (V2 was not tested)
Offsetted by 1530:
01 [1c528a69] (000/809) No match (V2 was not tested)
02 [6bb5b309] (000/802) No match (V2 was not tested)
03 [11e1ecfb] (000/800) No match (V2 was not tested)
04 [7d9d1589] (000/800) No match (V2 was not tested)
05 [82d0e388] (000/803) No match (V2 was not tested)
06 [36e30269] (000/803) No match (V2 was not tested)
07 [397bdc41] (000/801) No match (V2 was not tested)
08 [d7e0a814] (000/800) No match (V2 was not tested)
09 [bd0bb77a] (000/803) No match
10 [54ee8a85] (000/804) No match
11 [97932791] (000/805) No match
12 [d7c1e0c9] (000/797) No match
13 [e1ed9175] (000/795) No match
14 [85976d0e] (000/798) No match
15 [5df43d5d] (000/798) No match
16 [d38a3fbc] (000/800) No match
17 [e0d1fca1] (000/800) No match
18 [5f6a398f] (000/796) No match
19 [8b38d3d9] (000/795) No match
20 [b35d0178] (000/795) No match
21 [c9cba393] (000/790) No match
22 [bc284e7b] (000/798) No match
23 [02020eba] (000/787) No match
24 [af1ae608] (000/797) No match
25 [14ccea66] (000/787) No match
Offsetted by 1531:
01 [f4a76a0f] (000/809) No match
02 [3bec7ccf] (000/802) No match
03 [7bb40686] (000/800) No match
04 [36b93ea0] (000/800) No match
05 [9d1c67f9] (000/803) No match
06 [4dbe2eef] (000/803) No match
07 [c7c828d9] (000/801) No match
08 [6a3d1977] (000/800) No match
09 [c1bae858] (000/803) No match (V2 was not tested)
10 [23085b2a] (000/804) No match (V2 was not tested)
11 [4a3ed91e] (000/805) No match (V2 was not tested)
12 [db3ea25d] (000/797) No match (V2 was not tested)
13 [a229d957] (000/795) No match (V2 was not tested)
14 [faaa7176] (000/798) No match (V2 was not tested)
15 [135c8e29] (000/798) No match (V2 was not tested)
16 [72d3cf24] (000/800) No match (V2 was not tested)
17 [b84b26c8] (000/800) No match (V2 was not tested)
18 [b0ce7ba4] (000/796) No match (V2 was not tested)
19 [1992bb18] (000/795) No match (V2 was not tested)
20 [2bb15f8d] (000/795) No match (V2 was not tested)
21 [1c182747] (000/790) No match (V2 was not tested)
22 [97428968] (000/798) No match (V2 was not tested)
23 [89cd22b9] (000/787) No match (V2 was not tested)
24 [aec0a65f] (000/797) No match (V2 was not tested)
25 [6ddacb7c] (000/787) No match (V2 was not tested)

Track Peak [ CRC32 ] [W/O NULL] [ LOG ]
-- 99,4 [476B160C] [A57F6A84] CRC32
01 81,2 [811EC9B6] [34233DA1]
02 78,6 [93C4054C] [A4F68C5A]
03 89,7 [099EA1C4] [23AC1BAB]
04 74,1 [AD009F08] [026BB5B8]
05 87,2 [C9096FCB] [81A5C18A]
06 84,3 [C6503483] [90E12D3E]
07 70,7 [EA155A70] [3B1AE244]
08 99,4 [86E07C25] [62B73844]
09 90,4 [E2A81471] [A7ED2BE2]
10 73,5 [B3DC8651] [64067840]
11 67,4 [84447215] [7D3F77DC]
12 86,2 [30742AE2] [ADF70AC9]
13 99,1 [0ADD36A2] [C34AA05B]
14 99,3 [A5565F39] [9FBE05F6]
15 99,4 [B85448AD] [C9BD449A]
16 95,4 [D0F3BB7D] [682DB617]
17 84,2 [58D1A756] [A87F4AFE]
18 76,7 [98E932E2] [74F7DAC5]
19 99,4 [5AE4B461] [AFDB2242]
20 99,4 [D0F34DD0] [25A6EFF1]
21 74,1 [B6D7E0EF] [3203A572]
22 55,9 [C21614E7] [1D2F56B8]
23 66,9 [BFFB2A93] [126DB25C]
24 83,4 [CF458E2A] [CEDB6DF6]
25 84,1 [FED0B0D0] [AEB2329B]
[_/su_spoiler]

CUETools 2.1.5 Disc 2

[CUETools log; Date: 17.09.2013 18:59:53; Version: 2.1.4]
[CTDB TOCID: P5rZzDKTClMUqOC4M2kTeekY4xs-] found.
Track | CTDB Status
1 | (218/221) Accurately ripped
2 | (218/221) Accurately ripped
3 | (218/221) Accurately ripped
4 | (219/221) Accurately ripped
5 | (219/221) Accurately ripped
6 | (219/221) Accurately ripped
7 | (217/221) Accurately ripped
8 | (220/221) Accurately ripped
9 | (217/221) Accurately ripped
10 | (216/221) Accurately ripped
11 | (212/221) Accurately ripped
12 | (218/221) Accurately ripped
13 | (215/221) Accurately ripped
14 | (216/221) Accurately ripped
15 | (216/221) Accurately ripped
16 | (213/221) Accurately ripped
17 | (208/221) Accurately ripped
18 | (209/221) Accurately ripped
19 | (209/221) Accurately ripped
20 | (208/221) Accurately ripped
[AccurateRip ID: 002d3cd0-029f3f45-0f0f1314] found.
Track [ CRC | V2 ] Status
01 [f608a435|89d04a57] (200+161/848) Accurately ripped
02 [63b17be2|05e85168] (200+163/853) Accurately ripped
03 [ad88c1ca|9f416834] (200+163/850) Accurately ripped
04 [470d1b53|0015c68e] (200+161/847) Accurately ripped
05 [458e7781|50395684] (200+162/849) Accurately ripped
06 [a813c717|16166c57] (200+160/847) Accurately ripped
07 [374828f0|6286de45] (200+162/850) Accurately ripped
08 [15bb50fc|db513012] (200+160/852) Accurately ripped
09 [7535ce90|bf6d0694] (200+161/847) Accurately ripped
10 [5611d25d|e1847248] (200+160/848) Accurately ripped
11 [46f0b82b|003cf656] (200+159/842) Accurately ripped
12 [ae1c3825|883c4cd4] (200+164/849) Accurately ripped
13 [baf6dbf3|eb5eb0e0] (200+161/847) Accurately ripped
14 [8e62e9d9|ebfea8f2] (200+162/845) Accurately ripped
15 [465c279a|1ffa153a] (200+159/846) Accurately ripped
16 [38a0b76d|795fdcdb] (200+159/844) Accurately ripped
17 [c3a6c1eb|8b657e86] (200+152/842) Accurately ripped
18 [0b8a0c9f|54038f6f] (200+151/838) Accurately ripped
19 [1d92e636|68e40d27] (200+155/838) Accurately ripped
20 [af534a2c|48cf93bf] (200+143/825) Accurately ripped
Offsetted by -1490:
01 [b785f137] (002/848) Accurately ripped
02 [2b4a3af4] (002/853) Accurately ripped
03 [58fde900] (002/850) Accurately ripped
04 [cbe55d25] (002/847) Accurately ripped
05 [440fa315] (002/849) Accurately ripped
06 [60eb9305] (002/847) Accurately ripped
07 [8688156e] (002/850) Accurately ripped
08 [4b186a50] (002/852) Accurately ripped
09 [b60d6662] (002/847) Accurately ripped
10 [d3087b91] (002/848) Accurately ripped
11 [ac10fe3b] (002/842) Accurately ripped
12 [24cb57ed] (002/849) Accurately ripped
13 [4dd5d349] (002/847) Accurately ripped
14 [e4cd913f] (002/845) Accurately ripped
15 [a7b4db52] (002/846) Accurately ripped
16 [83b76305] (002/844) Accurately ripped
17 [8f2c9275] (002/842) Accurately ripped
18 [90ae2221] (002/838) Accurately ripped
19 [9b36cf64] (002/838) Accurately ripped
20 [93d2e31c] (002/825) Accurately ripped
Offsetted by -1196:
01 [48d70e01] (004/848) Accurately ripped
02 [2d24300e] (004/853) Accurately ripped
03 [e1f11a4e] (004/850) Accurately ripped
04 [5c1f07ff] (004/847) Accurately ripped
05 [c21f6279] (004/849) Accurately ripped
06 [ce7cf4eb] (004/847) Accurately ripped
07 [b77ee824] (004/850) Accurately ripped
08 [7401fc6f] (003/852) Accurately ripped
09 [3d439e25] (004/847) Accurately ripped
10 [350cbb15] (004/848) Accurately ripped
11 [7bef7a8b] (004/842) Accurately ripped
12 [8bd46dd5] (004/849) Accurately ripped
13 [7d23d137] (003/847) Accurately ripped
14 [6f11dd7d] (004/845) Accurately ripped
15 [d62176ea] (004/846) Accurately ripped
16 [6e0719fd] (004/844) Accurately ripped
17 [2a89bfe7] (004/842) Accurately ripped
18 [3367196b] (004/838) Accurately ripped
19 [bfee9b8a] (004/838) Accurately ripped
20 [db39e1cc] (004/825) Accurately ripped
Offsetted by -670:
01 [5c808e23] (009/848) Accurately ripped
02 [b84a5b40] (009/853) Accurately ripped
03 [387c25e4] (009/850) Accurately ripped
04 [071501f1] (009/847) Accurately ripped
05 [8ec3654d] (010/849) Accurately ripped
06 [08f084b9] (010/847) Accurately ripped
07 [9fa47982] (010/850) Accurately ripped
08 [f2057aff] (009/852) Accurately ripped
09 [797b5913] (009/847) Accurately ripped
10 [52208589] (010/848) Accurately ripped
11 [04bc399b] (010/842) Accurately ripped
12 [a078b61d] (009/849) Accurately ripped
13 [e6abdeed] (010/847) Accurately ripped
14 [5507b443] (009/845) Accurately ripped
15 [e3877a22] (009/846) Accurately ripped
16 [db406315] (009/844) Accurately ripped
17 [8d20c811] (009/842) Accurately ripped
18 [efc8aa0d] (010/838) Accurately ripped
19 [14c7fc98] (010/838) Accurately ripped
20 [cde971bc] (009/825) Accurately ripped
Offsetted by -664:
01 [e2147f0d] (038/848) Accurately ripped
02 [79a2657a] (039/853) Accurately ripped
03 [846c3692] (037/850) Accurately ripped
04 [6d4a6deb] (037/847) Accurately ripped
05 [388505f1] (037/849) Accurately ripped
06 [ad22817f] (037/847) Accurately ripped
07 [719f1018] (038/850) Accurately ripped
08 [7f770af2] (038/852) Accurately ripped
09 [f418abda] (037/847) Accurately ripped
10 [e669c04d] (037/848) Accurately ripped
11 [61cb36eb] (037/842) Accurately ripped
12 [15835885] (037/849) Accurately ripped
13 [4073fe3b] (036/847) Accurately ripped
14 [388142e1] (036/845) Accurately ripped
15 [6716c13a] (038/846) Accurately ripped
16 [e542038d] (036/844) Accurately ripped
17 [80a01223] (037/842) Accurately ripped
18 [d3c1fd77] (035/838) Accurately ripped
19 [d19cb79e] (034/838) Accurately ripped
20 [37dbdf6c] (036/825) Accurately ripped
Offsetted by -90:
01 [225d867f] (005/848) Accurately ripped
02 [0f88e27c] (005/853) Accurately ripped
03 [3a77c798] (005/850) Accurately ripped
04 [49ebc7ad] (005/847) Accurately ripped
05 [53360de5] (005/849) Accurately ripped
06 [0925f77d] (005/847) Accurately ripped
07 [e9995626] (005/850) Accurately ripped
08 [4d9a2a7a] (005/852) Accurately ripped
09 [67f51814] (005/847) Accurately ripped
10 [a5c760e1] (004/848) Accurately ripped
11 [d30fe07b] (004/842) Accurately ripped
12 [d27cb40d] (005/849) Accurately ripped
13 [783d0661] (005/847) Accurately ripped
14 [3a438e97] (005/845) Accurately ripped
15 [90f6fd32] (005/846) Accurately ripped
16 [a2885065] (005/844) Accurately ripped
17 [7f316add] (005/842) Accurately ripped
18 [afee2969] (005/838) Accurately ripped
19 [0d1bf0dc] (004/838) Accurately ripped
20 [7a1edcdc] (005/825) Accurately ripped
Offsetted by 106:
01 [833e445b] (002/848) Accurately ripped
02 [10c4db38] (002/853) Accurately ripped
03 [406f3dcc] (002/850) Accurately ripped
04 [ff678ee9] (002/847) Accurately ripped
05 [a7408d7d] (002/849) Accurately ripped
06 [fcdc38c1] (002/847) Accurately ripped
07 [b4e88d4a] (002/850) Accurately ripped
08 [591aeaa9] (002/852) Accurately ripped
09 [65e62035] (002/847) Accurately ripped
10 [e71f8b39] (002/848) Accurately ripped
11 [5da4335b] (002/842) Accurately ripped
12 [c1d817fd] (002/849) Accurately ripped
13 [97c65a55] (002/847) Accurately ripped
14 [411bc16b] (002/845) Accurately ripped
15 [5a94ba42] (002/846) Accurately ripped
16 [e9681fb5] (002/844) Accurately ripped
17 [916f8929] (002/842) Accurately ripped
18 [71bece45] (002/838) Accurately ripped
19 [d04123a0] (002/838) Accurately ripped
20 [a9b8dbfc] (002/825) Accurately ripped
Offsetted by 130:
01 [998e0803] (005/848) Accurately ripped
02 [16250420] (005/853) Accurately ripped
03 [702f8084] (005/850) Accurately ripped
04 [983d3ed1] (005/847) Accurately ripped
05 [4e47100d] (005/849) Accurately ripped
06 [8da42bd9] (005/847) Accurately ripped
07 [fcd2e7a2] (005/850) Accurately ripped
08 [cf13cb3f] (005/852) Accurately ripped
09 [87cc129f] (005/847) Accurately ripped
10 [38447649] (005/848) Accurately ripped
11 [d1e0289b] (005/842) Accurately ripped
12 [9602a19d] (005/849) Accurately ripped
13 [fee6d78d] (005/847) Accurately ripped
14 [cf01fbe3] (005/845) Accurately ripped
15 [68d1d6a2] (005/846) Accurately ripped
16 [116ea195] (005/844) Accurately ripped
17 [5f6cb171] (005/842) Accurately ripped
18 [01a41bed] (005/838) Accurately ripped
19 [c3940fb8] (005/838) Accurately ripped
20 [518292bc] (005/825) Accurately ripped
Offsetted by 232:
01 [7861078d] (002/848) Accurately ripped
02 [ecfdb1fa] (002/853) Accurately ripped
03 [7b209c12] (002/850) Accurately ripped
04 [61c96a6b] (002/847) Accurately ripped
05 [9422baf1] (002/849) Accurately ripped
06 [74f5f4ff] (002/847) Accurately ripped
07 [ee76e798] (002/850) Accurately ripped
08 [8b8e27ac] (002/852) Accurately ripped
09 [cc903798] (002/847) Accurately ripped
10 [11215d4d] (002/848) Accurately ripped
11 [ffdefaeb] (002/842) Accurately ripped
12 [5bb76a85] (002/849) Accurately ripped
13 [f530ebbb] (002/847) Accurately ripped
14 [ea147461] (002/845) Accurately ripped
15 [25558f3a] (002/846) Accurately ripped
16 [bb8a498d] (002/844) Accurately ripped
17 [8ae09ca3] (002/842) Accurately ripped
18 [2532a5f7] (002/838) Accurately ripped
19 [4db47b1e] (002/838) Accurately ripped
20 [5a9bdb6c] (002/825) Accurately ripped
Offsetted by 296:
01 [5e8b114d] (006/848) Accurately ripped
02 [50a8c9ba] (008/853) Accurately ripped
03 [fa76a352] (008/850) Accurately ripped
04 [4eadea2b] (008/847) Accurately ripped
05 [51896c71] (008/849) Accurately ripped
06 [4c607d3f] (008/847) Accurately ripped
07 [ae3d2dd8] (008/850) Accurately ripped
08 [114321f4] (008/852) Accurately ripped
09 [ab62799c] (008/847) Accurately ripped
10 [942e7acd] (008/848) Accurately ripped
11 [8b2988eb] (008/842) Accurately ripped
12 [3c28d985] (008/849) Accurately ripped
13 [5d878efb] (008/847) Accurately ripped
14 [647a65a1] (008/845) Accurately ripped
15 [a0a3303a] (008/846) Accurately ripped
16 [26464e8d] (008/844) Accurately ripped
17 [b02e5d63] (008/842) Accurately ripped
18 [4f961fb7] (008/838) Accurately ripped
19 [d6919b5e] (007/838) Accurately ripped
20 [6f606d6c] (007/825) Accurately ripped
Offsetted by 560:
01 [53f87985] (200/848) Accurately ripped
02 [8bca8bb2] (200/853) Accurately ripped
03 [07b9813a] (200/850) Accurately ripped
04 [dfdc7923] (200/847) Accurately ripped
05 [7ed108a1] (200/849) Accurately ripped
06 [84f7ef47] (200/847) Accurately ripped
07 [c54f0fa0] (200/850) Accurately ripped
08 [cb05ec07] (200/852) Accurately ripped
09 [013c1929] (200/847) Accurately ripped
10 [10c4947d] (200/848) Accurately ripped
11 [89bd12ab] (200/842) Accurately ripped
12 [59fcc365] (200/849) Accurately ripped
13 [cbecf063] (200/847) Accurately ripped
14 [7d5ee8c9] (200/845) Accurately ripped
15 [3d43685a] (200/846) Accurately ripped
16 [de8de32d] (200/844) Accurately ripped
17 [8a0f187b] (200/842) Accurately ripped
18 [7e7075ef] (200/838) Accurately ripped
19 [4b21c066] (200/838) Accurately ripped
20 [a50b47ac] (200/825) Accurately ripped
Offsetted by 770:
01 [97326983] (022/848) Accurately ripped
02 [fad3f1a0] (022/853) Accurately ripped
03 [698bc904] (022/850) Accurately ripped
04 [d92a3c51] (023/847) Accurately ripped
05 [b449ff0d] (022/849) Accurately ripped
06 [f7cd7e59] (022/847) Accurately ripped
07 [7a91a622] (022/850) Accurately ripped
08 [83fc3031] (022/852) Accurately ripped
09 [45deec79] (022/847) Accurately ripped
10 [56c79d49] (023/848) Accurately ripped
11 [42c9b49b] (022/842) Accurately ripped
12 [5a70f79d] (022/849) Accurately ripped
13 [1249380d] (022/847) Accurately ripped
14 [96fd6863] (023/845) Accurately ripped
15 [39da20a2] (023/846) Accurately ripped
16 [3cc6d395] (023/844) Accurately ripped
17 [d47638f1] (023/842) Accurately ripped
18 [a986dd6d] (024/838) Accurately ripped
19 [1c375238] (023/838) Accurately ripped
20 [213046bc] (023/825) Accurately ripped
Offsetted by -684:
01 [7a275c01] (002/848) Accurately ripped
02 [4a7cee0e] (002/853) Accurately ripped
03 [dca1544e] (002/850) Accurately ripped
04 [c34305ff] (002/847) Accurately ripped
05 [ad54ee79] (002/849) Accurately ripped
06 [89d136eb] (002/847) Accurately ripped
07 [b5b11a24] (002/850) Accurately ripped
08 [fae80dc0] (002/852) Accurately ripped
09 [8a3f56e0] (002/847) Accurately ripped
10 [4d75a715] (002/848) Accurately ripped
11 [d643ea8b] (002/842) Accurately ripped
12 [8f5fe5d5] (002/849) Accurately ripped
13 [bfd8eb37] (002/847) Accurately ripped
14 [4241677d] (000/845) No match
15 [b08e7eea] (002/846) Accurately ripped
16 [c3e741fd] (002/844) Accurately ripped
17 [54f7c5e7] (002/842) Accurately ripped
18 [8682e76b] (002/838) Accurately ripped
19 [06d79d8a] (002/838) Accurately ripped
20 [815e71cc] (002/825) Accurately ripped
Offsetted by -132:
01 [7b51f019] (000/848) No match (V2 was not tested)
02 [c6209ae6] (000/853) No match (V2 was not tested)
03 [26e752d6] (000/850) No match (V2 was not tested)
04 [7e75d3d7] (000/847) No match (V2 was not tested)
05 [aeeaa969] (000/849) No match (V2 was not tested)
06 [8bc80e13] (000/847) No match (V2 was not tested)
07 [2bbf380c] (000/850) No match (V2 was not tested)
08 [65b69137] (000/852) No match (V2 was not tested)
09 [21ffda79] (000/847) No match (V2 was not tested)
10 [97c6c585] (000/848) No match (V2 was not tested)
11 [47a6f34b] (000/842) No match (V2 was not tested)
12 [9f324335] (000/849) No match (V2 was not tested)
13 [03c42b3f] (000/847) No match (V2 was not tested)
14 [01f0a845] (000/845) No match (V2 was not tested)
15 [f80c0b8a] (000/846) No match (V2 was not tested)
16 [5c7ced1d] (000/844) No match (V2 was not tested)
17 [d6b6645f] (000/842) No match (V2 was not tested)
18 [741ce183] (000/838) No match (V2 was not tested)
19 [e34ad3b2] (000/838) No match (V2 was not tested)
20 [947ddd0c] (000/825) No match (V2 was not tested)
Offsetted by -24:
01 [dfb8e08d] (000/848) No match (V2 was not tested)
02 [5e5152fa] (000/853) No match (V2 was not tested)
03 [7dc87f12] (000/850) No match (V2 was not tested)
04 [ae376b6b] (000/847) No match (V2 was not tested)
05 [9e87f4f1] (000/849) No match (V2 was not tested)
06 [174bd3ff] (000/847) No match (V2 was not tested)
07 [ef5dce98] (000/850) No match (V2 was not tested)
08 [1515c716] (000/852) No match (V2 was not tested)
09 [5086e196] (000/847) No match (V2 was not tested)
10 [04ece74d] (000/848) No match (V2 was not tested)
11 [d2b4c2eb] (000/842) No match (V2 was not tested)
12 [d9f1ae85] (000/849) No match (V2 was not tested)
13 [53d65ebb] (000/847) No match (V2 was not tested)
14 [007caf61] (000/845) No match (V2 was not tested)
15 [381f0b3a] (000/846) No match (V2 was not tested)
16 [109a358d] (000/844) No match (V2 was not tested)
17 [f5a999a3] (000/842) No match (V2 was not tested)
18 [7ba4bef7] (000/838) No match (V2 was not tested)
19 [2a3ffa1e] (000/838) No match (V2 was not tested)
20 [0789936c] (000/825) No match (V2 was not tested)
Offsetted by -18:
01 [654cd177] (000/848) No match (V2 was not tested)
02 [1fa95d34] (000/853) No match (V2 was not tested)
03 [c9b88fc0] (000/850) No match (V2 was not tested)
04 [146cd765] (000/847) No match (V2 was not tested)
05 [48499595] (000/849) No match (V2 was not tested)
06 [bb7dd0c5] (000/847) No match (V2 was not tested)
07 [c158652e] (000/850) No match (V2 was not tested)
08 [7a74024f] (002/852) Accurately ripped
09 [67488b2b] (000/847) No match (V2 was not tested)
10 [99362211] (000/848) No match (V2 was not tested)
11 [2fc3c03b] (000/842) No match (V2 was not tested)
12 [4efc50ed] (000/849) No match (V2 was not tested)
13 [ad9e7e09] (000/847) No match (V2 was not tested)
14 [e3f63dff] (000/845) No match (V2 was not tested)
15 [bbae5252] (000/846) No match (V2 was not tested)
16 [1a9bd605] (000/844) No match (V2 was not tested)
17 [e928e3b5] (000/842) No match (V2 was not tested)
18 [5f9e1261] (000/838) No match (V2 was not tested)
19 [e714b524] (000/838) No match (V2 was not tested)
20 [717c011c] (002/825) Accurately ripped
Offsetted by -6:
01 [7074b34b] (002/848) Accurately ripped
02 [a25971a8] (002/853) Accurately ripped
03 [6198b11c] (002/850) Accurately ripped
04 [e0d7af59] (002/847) Accurately ripped
05 [9bccd6dd] (002/849) Accurately ripped
06 [03e1ca51] (002/847) Accurately ripped
07 [654d925a] (002/850) Accurately ripped
08 [e4bc06cb] (002/852) Accurately ripped
09 [7c098173] (002/847) Accurately ripped
10 [c1c89799] (002/848) Accurately ripped
11 [e9e1badb] (002/842) Accurately ripped
12 [391195bd] (002/849) Accurately ripped
13 [612ebca5] (003/847) Accurately ripped
14 [aae95b3b] (002/845) Accurately ripped
15 [c2cce082] (002/846) Accurately ripped
16 [2e9f16f5] (002/844) Accurately ripped
17 [d02777d9] (002/842) Accurately ripped
18 [2790b935] (002/838) Accurately ripped
19 [60be2b30] (002/838) Accurately ripped
20 [4560dc7c] (000/825) No match (V2 was not tested)
Offsetted by 566:
01 [d98c6a6f] (000/848) No match
02 [4d2295ec] (000/853) No match
03 [53a991e8] (000/850) No match
04 [4611e51d] (000/847) No match
05 [2892a945] (000/849) No match
06 [2929ec0d] (000/847) No match
07 [9749a636] (000/850) No match
08 [308b9e7a] (000/852) No match
09 [d2d11f34] (000/847) No match
10 [a50dcf41] (000/848) No match
11 [e6cc0ffb] (000/842) No match
12 [cf0765cd] (000/849) No match
13 [25b50fb1] (000/847) No match
14 [60d87767] (000/845) No match
15 [c0d2af72] (000/846) No match
16 [e88f83a5] (002/844) Accurately ripped
17 [7d8e628d] (002/842) Accurately ripped
18 [6269c959] (002/838) Accurately ripped
19 [07f67b6c] (002/838) Accurately ripped
20 [0efdb55c] (002/825) Accurately ripped
Offsetted by 1617:
01 [9546c28c] (000/848) No match (V2 was not tested)
02 [6de03ff1] (000/853) No match (V2 was not tested)
03 [1ec250f7] (000/850) No match (V2 was not tested)
04 [604a4702] (000/847) No match (V2 was not tested)
05 [fae51427] (000/849) No match (V2 was not tested)
06 [82b36188] (000/847) No match (V2 was not tested)
07 [c495afd9] (000/850) No match (V2 was not tested)
08 [f12b5c6e] (000/852) No match (V2 was not tested)
09 [a3e838e7] (000/847) No match (V2 was not tested)
10 [71292fb3] (000/848) No match (V2 was not tested)
11 [be3863e3] (000/842) No match (V2 was not tested)
12 [e4ce30a1] (000/849) No match (V2 was not tested)
13 [3f23d090] (000/847) No match (V2 was not tested)
14 [06da8d2e] (000/845) No match (V2 was not tested)
15 [45b17f5e] (000/846) No match (V2 was not tested)
16 [415725c1] (000/844) No match (V2 was not tested)
17 [1a273bde] (000/842) No match (V2 was not tested)
18 [8a835cb6] (000/838) No match (V2 was not tested)
19 [e785c907] (000/838) No match (V2 was not tested)
20 [b809c2f4] (000/825) No match (V2 was not tested)

Track Peak [ CRC32 ] [W/O NULL] [ LOG ]
-- 99,4 [2A928D5C] [57A0247F] CRC32
01 67,3 [0143AA8E] [A9E2D196]
02 72,5 [EA9A4275] [CA325B0C]
03 99,4 [1621136C] [AC96C64E]
04 85,3 [79F6AA1B] [07D1F335]
05 88,1 [2A614402] [C68A236B]
06 99,4 [46334CA3] [D56325CD]
07 99,4 [CB771AC7] [4A06B2B5]
08 69,0 [F86446F9] [14E3348D]
09 99,4 [D0F858B2] [F7733FCE]
10 83,4 [44D736AB] [56A50FF7]
11 66,5 [C1EAD09D] [94F3D5D5]
12 99,4 [C01FC87D] [B1DF3329]
13 96,6 [BEDD7F3D] [57AD1231]
14 93,2 [113161AA] [92BE3819]
15 57,0 [E7F8CF44] [6EF931A0]
16 91,5 [201CACA7] [9938BBC6]
17 88,9 [5C9E513D] [3E50B2BD]
18 99,4 [7C435E4F] [AEF51BFF]
19 99,4 [DB035C9B] [9BEF04A0]
20 63,7 [07B3BB38] [A36B30E8]
[_/su_spoiler]

Back & CD label

DOWNLOAD FROM
 
Nitroflare
LMA__TB.Ant2.1996.rar
 
Password: www.LosslessMA.net
 
If you encounter broken links or other problem about this publication, please let me know
and write your comment below. I will reply and fix as soon as possible.