The Beatles – Live At The BBC: The Collection (2013)

The Beatles - Live At The BBC: The Collection (2013)

The Beatles – Live At The BBC: The Collection (2013)
EAC Rip | 4xCD | FLAC Image + Cue + Log | Full Scans @600 dpi, JPG
Size: 960 MB | 3% RAR Recovery
Label: Universal / Apple | Cat#: 0602537584475 | Genre: Classic Rock

In 1994, The Beatles’ Live at the BBC was released to worldwide acclaim – hitting number one in the U.K. and number three in the U.S. and selling more than five million copies within six weeks. Now comes a new companion to The Beatles’ first BBC collection, On Air Live at the BBC Volume 2. On Air’s 63 tracks, none of which overlaps with The Beatles’ first BBC release, include 37 previously unreleased performances and 23 previously unreleased recordings of in-studio banter and conversation between the band’s members and their BBC radio hosts.

In the studios of the British Broadcasting Corporation, The Beatles performed music for a variety of radio shows. Live At The BBC and On Air – Live at the BBC Volume 2 presents the sound of The Beatles seizing their moment to play for the nation. Thrilled to hear these exciting recordings again, Paul McCartney said, ‘There’s a lot of energy and spirit. We are going for it, not holding back at all, trying to put in the best performance of our lifetimes.’

Between March 1962 and June 1965, no fewer than 275 unique musical performances by The Beatles were broadcast by the BBC in the U.K. The group played songs on 39 radio shows in 1963 alone. Ringo Starr said in 1994, ‘You tend to forget that we were a working band. It’s that mono sound. There were usually no overdubs. We were in at the count-in and that was it. I get excited listening to them.’ On their busiest BBC day, 16 July 1963, The Beatles recorded 18 songs for three editions of their Pop Go The Beatles series in fewer than seven hours.

Notes:
Packaging Slipcase includes:

* The Beatles Live at The BBC – 2 CDs packaged in soft pack, 56 songs (plus 13 intros) recorded live by the Beatles in the BBC studios between 1962 and 1965, 48 page booklet. Original Released in 1994.

* The Beatles on Air-Live at The BBC Volume 2 – 2 CDs packaged in soft pack, 63 tracks total, 37 unreleased performances, 23 tracks of in-studio banter, 48 page booklet with rare photos and an introduction by Paul McCartney, Compiled and researched by producers Kevin Howlett and Mike Heatley.

Additional Info:
• Recorded Date: 1962 – 1965
• Released Date: 2013

Disc Listing:

The Beatles - Live At The BBC (1994) [2013 Remastered]
The Beatles - Live At The BBC (1994) {2013 Remastered}

The Beatles – Live At The BBC (1994) {2013 Remastered}
EAC Rip | FLAC Image + Cue + Log | Full Scans @600 dpi, JPG
Label: Universal / Apple | Cat#: 3749153 | Genre: Classic Rock

Disc 1:
01. Beatle Greetings (Speech) – 0:14
02. From Us To You (Opening) – 0:30
03. Riding On A Bus (Speech) – 0:55
04. I Got A Woman – 2:48
05. Too Much Monkey Business – 2:08
06. Keep Your Hands Off My Baby – 2:31
07. I’ll Be On My Way – 1:58
08. Young Blood – 1:56
09. A Shot Of Rhythm And Blues – 2:16
10. Sure To Fall (In Love With You) – 2:08
11. Some Other Guy – 2:01
12. Thank You Girl – 2:05
13. Sha La La La La! (Speech) – 0:28
14. Baby It’s You – 2:44
15. That’s All Right (Mama) – 2:56
16. Carol – 2:36
17. What Is It, George? (Speech) – 0:31
18. Soldier Of Love – 1:59
19. A Little Rhyme (Speech) – 0:26
20. Clarabella – 2:40
21. I’m Gonna Sit Right Down And Cry (Over You) – 2:02
22. Crying, Waiting, Hoping – 2:11
23. Dear Wack! (Speech) – 0:43
24. You Really Got A Hold On Me – 2:38
25. To Know Her Is To Love Her – 2:51
26. A Taste Of Honey – 1:59
27. Long Tall Sally – 1:54
28. I Saw Her Standing There – 2:35
29. The Honeymoon Song – 1:40
30. Johnny B. Goode – 2:51
31. Memphis, Tennessee – 2:16
32. Lucille – 1:50
33. Can’t Buy Me Love – 2:08
34. From Fluff To You (Speech) – 0:28
35. Till There Was You – 2:17

Disc 2:
01. Crinsk Dee Night (Speech) – 1:09
02. A Hard Day’s Night – 2:44
03. Have A Banana! (Speech) – 0:14
04. I Wanna Be Your Man – 2:10
05. Just A Rumour (Speech) – 0:20
06. Roll Over Beethoven – 2:17
07. All My Loving – 2:07
08. Things We Said Today – 2:18
09. She’s A Woman – 3:19
10. Sweet Little Sixteen – 2:21
11. 1822! (Speech) – 0:10
12. Lonesome Tears In My Eyes – 2:36
13. Nothin’ Shakin’ – 3:00
14. The Hippy Hippy Shake – 1:50
15. Glad All Over – 1:53
16. I Just Don’t Understand – 2:48
17. So How Come (No One Loves Me) – 1:55
18. I Feel Fine – 2:16
19. I’m A Loser – 2:33
20. Everybody’s Trying To Be My Baby – 2:23
21. Rock And Roll Music – 2:02
22. Ticket To Ride – 2:59
23. Dizzy Miss Lizzy – 2:44
24. Medley: Kansas City / Hey! Hey! Hey! Hey! – 2:39
25. Set Fire To That Lot! (Speech) – 0:28
26. Matchbox – 1:58
27. I Forgot To Remember To Forget – 2:06
28. Love These Goon Shows! (Speech) – 0:28
29. I Got To Find My Baby – 1:58
30. Ooh! My Soul – 1:38
31. Ooh! My Arms (Speech) – 0:36
32. Don’t Ever Change – 2:05
33. Slow Down – 2:38
34. Honey Don’t – 2:13
35. Love Me Do – 2:29
36. From Us To You (Closing) – 0:38

EAC Log
EAC Log Disc 1

Exact Audio Copy V1.0 beta 3 from 29. August 2011

EAC extraction logfile from 29. November 2013, 23:57

The Beatles / Live At The BBC CD1 (Remaster 2013)

Used drive : ATAPI iHAS124 B Adapter: 2 ID: 0

Read mode : Secure
Utilize accurate stream : Yes
Defeat audio cache : Yes
Make use of C2 pointers : No

Read offset correction : 6
Overread into Lead-In and Lead-Out : No
Fill up missing offset samples with silence : Yes
Delete leading and trailing silent blocks : No
Null samples used in CRC calculations : Yes
Used interface : Native Win32 interface for Win NT & 2000

Used output format : User Defined Encoder
Selected bitrate : 1024 kBit/s
Quality : High
Add ID3 tag : No
Command line compressor : C:\Program Files (x86)\Exact Audio Copy\FLAC\FLAC.EXE
Additional command line options : -8 -V -T "ARTIST=%artist%" -T "TITLE=%title%" -T "ALBUM=%albumtitle%" -T "DATE=%year%" -T "TRACKNUMBER=%tracknr%" -T "GENRE=%genre%" -T "PERFORMER=%albuminterpret%" -T "COMPOSER=%composer%" %haslyrics%--tag-from-file=LYRICS="%lyricsfile%"%haslyrics% -T "ALBUMARTIST=%albumartist%" -T "DISCNUMBER=%cdnumber%" -T "TOTALDISCS=%totalcds%" -T "TOTALTRACKS=%numtracks%" -T "COMMENT=%comment%" %source% -o %dest%

TOC of the extracted CD

Track | Start | Length | Start sector | End sector
---------------------------------------------------------
1 | 0:00.00 | 0:13.58 | 0 | 1032
2 | 0:13.58 | 0:29.44 | 1033 | 3251
3 | 0:43.27 | 0:54.67 | 3252 | 7368
4 | 1:38.19 | 2:48.25 | 7369 | 19993
5 | 4:26.44 | 2:07.43 | 19994 | 29561
6 | 6:34.12 | 2:31.21 | 29562 | 40907
7 | 9:05.33 | 1:57.61 | 40908 | 49743
8 | 11:03.19 | 1:55.41 | 49744 | 58409
9 | 12:58.60 | 2:16.00 | 58410 | 68609
10 | 15:14.60 | 2:08.07 | 68610 | 78216
11 | 17:22.67 | 2:01.13 | 78217 | 87304
12 | 19:24.05 | 2:04.49 | 87305 | 96653
13 | 21:28.54 | 0:28.12 | 96654 | 98765
14 | 21:56.66 | 2:43.41 | 98766 | 111031
15 | 24:40.32 | 2:55.48 | 111032 | 124204
16 | 27:36.05 | 2:36.17 | 124205 | 135921
17 | 30:12.22 | 0:31.11 | 135922 | 138257
18 | 30:43.33 | 1:59.09 | 138258 | 147191
19 | 32:42.42 | 0:25.52 | 147192 | 149118
20 | 33:08.19 | 2:39.71 | 149119 | 161114
21 | 35:48.15 | 2:02.00 | 161115 | 170264
22 | 37:50.15 | 2:11.13 | 170265 | 180102
23 | 40:01.28 | 0:42.49 | 180103 | 183301
24 | 40:44.02 | 2:38.17 | 183302 | 195168
25 | 43:22.19 | 2:50.70 | 195169 | 207988
26 | 46:13.14 | 1:58.52 | 207989 | 216890
27 | 48:11.66 | 1:53.73 | 216891 | 225438
28 | 50:05.64 | 2:35.10 | 225439 | 237073
29 | 52:40.74 | 1:39.73 | 237074 | 244571
30 | 54:20.72 | 2:51.19 | 244572 | 257415
31 | 57:12.16 | 2:15.59 | 257416 | 267599
32 | 59:28.00 | 1:50.12 | 267600 | 275861
33 | 61:18.12 | 2:07.49 | 275862 | 285435
34 | 63:25.61 | 0:28.05 | 285436 | 287540
35 | 63:53.66 | 2:17.32 | 287541 | 297847

Range status and errors

Selected range

Filename G:\CD\The Beatles - Live At The BBC CD1 (Remaster 2013).wav

Peak level 99.8 %
Extraction speed 6.4 X
Range quality 100.0 %
Test CRC 5D552551
Copy CRC 5D552551
Copy OK

No errors occurred

AccurateRip summary

Track 1 not present in database
Track 2 not present in database
Track 3 not present in database
Track 4 not present in database
Track 5 not present in database
Track 6 not present in database
Track 7 not present in database
Track 8 not present in database
Track 9 not present in database
Track 10 not present in database
Track 11 not present in database
Track 12 not present in database
Track 13 not present in database
Track 14 not present in database
Track 15 not present in database
Track 16 not present in database
Track 17 not present in database
Track 18 not present in database
Track 19 not present in database
Track 20 not present in database
Track 21 not present in database
Track 22 not present in database
Track 23 not present in database
Track 24 not present in database
Track 25 not present in database
Track 26 not present in database
Track 27 not present in database
Track 28 not present in database
Track 29 not present in database
Track 30 not present in database
Track 31 not present in database
Track 32 not present in database
Track 33 not present in database
Track 34 not present in database
Track 35 not present in database

None of the tracks are present in the AccurateRip database

End of status report

==== Log checksum 4188DDD8FE5FD2B0F25561B8170D9299518B9954F87BA3DACF908092A85FC2E5 ====
[__/su_spoiler]

EAC Log Disc 2

Exact Audio Copy V1.0 beta 3 from 29. August 2011

EAC extraction logfile from 29. November 2013, 23:23

The Beatles / Live At The BBC CD2 (Remaster 2013)

Used drive : ATAPI iHAS124 B Adapter: 2 ID: 0

Read mode : Secure
Utilize accurate stream : Yes
Defeat audio cache : Yes
Make use of C2 pointers : No

Read offset correction : 6
Overread into Lead-In and Lead-Out : No
Fill up missing offset samples with silence : Yes
Delete leading and trailing silent blocks : No
Null samples used in CRC calculations : Yes
Used interface : Native Win32 interface for Win NT & 2000

Used output format : User Defined Encoder
Selected bitrate : 1024 kBit/s
Quality : High
Add ID3 tag : No
Command line compressor : C:\Program Files (x86)\Exact Audio Copy\FLAC\FLAC.EXE
Additional command line options : -8 -V -T "ARTIST=%artist%" -T "TITLE=%title%" -T "ALBUM=%albumtitle%" -T "DATE=%year%" -T "TRACKNUMBER=%tracknr%" -T "GENRE=%genre%" -T "PERFORMER=%albuminterpret%" -T "COMPOSER=%composer%" %haslyrics%--tag-from-file=LYRICS="%lyricsfile%"%haslyrics% -T "ALBUMARTIST=%albumartist%" -T "DISCNUMBER=%cdnumber%" -T "TOTALDISCS=%totalcds%" -T "TOTALTRACKS=%numtracks%" -T "COMMENT=%comment%" %source% -o %dest%

TOC of the extracted CD

Track | Start | Length | Start sector | End sector
---------------------------------------------------------
1 | 0:00.00 | 1:09.31 | 0 | 5205
2 | 1:09.31 | 2:43.45 | 5206 | 17475
3 | 3:53.01 | 0:13.64 | 17476 | 18514
4 | 4:06.65 | 2:09.66 | 18515 | 28255
5 | 6:16.56 | 0:20.12 | 28256 | 29767
6 | 6:36.68 | 2:16.56 | 29768 | 40023
7 | 8:53.49 | 2:06.53 | 40024 | 49526
8 | 11:00.27 | 2:17.63 | 49527 | 59864
9 | 13:18.15 | 3:18.65 | 59865 | 74779
10 | 16:37.05 | 2:21.35 | 74780 | 85389
11 | 18:58.40 | 0:10.27 | 85390 | 86166
12 | 19:08.67 | 2:36.12 | 86167 | 97878
13 | 21:45.04 | 2:59.66 | 97879 | 111369
14 | 24:44.70 | 1:50.23 | 111370 | 119642
15 | 26:35.18 | 1:52.61 | 119643 | 128103
16 | 28:28.04 | 2:47.49 | 128104 | 140677
17 | 31:15.53 | 1:55.28 | 140678 | 149330
18 | 33:11.06 | 2:15.61 | 149331 | 159516
19 | 35:26.67 | 2:32.50 | 159517 | 170966
20 | 37:59.42 | 2:22.49 | 170967 | 181665
21 | 40:22.16 | 2:02.09 | 181666 | 190824
22 | 42:24.25 | 2:59.02 | 190825 | 204251
23 | 45:23.27 | 2:43.68 | 204252 | 216544
24 | 48:07.20 | 2:39.26 | 216545 | 228495
25 | 50:46.46 | 0:27.65 | 228496 | 230585
26 | 51:14.36 | 1:58.23 | 230586 | 239458
27 | 53:12.59 | 2:06.23 | 239459 | 248931
28 | 55:19.07 | 0:27.55 | 248932 | 251011
29 | 55:46.62 | 1:57.70 | 251012 | 259856
30 | 57:44.57 | 1:37.52 | 259857 | 267183
31 | 59:22.34 | 0:35.70 | 267184 | 269878
32 | 59:58.29 | 2:05.08 | 269879 | 279261
33 | 62:03.37 | 2:37.53 | 279262 | 291089
34 | 64:41.15 | 2:12.70 | 291090 | 301059
35 | 66:54.10 | 2:29.04 | 301060 | 312238
36 | 69:23.14 | 0:38.29 | 312239 | 315117

Range status and errors

Selected range

Filename G:\CD\The Beatles - Live At The BBC CD2 (Remaster 2013).wav

Peak level 99.8 %
Extraction speed 6.5 X
Range quality 100.0 %
Test CRC 9C0CBF31
Copy CRC 9C0CBF31
Copy OK

No errors occurred

AccurateRip summary

Track 1 not present in database
Track 2 not present in database
Track 3 not present in database
Track 4 not present in database
Track 5 not present in database
Track 6 not present in database
Track 7 not present in database
Track 8 not present in database
Track 9 not present in database
Track 10 not present in database
Track 11 not present in database
Track 12 not present in database
Track 13 not present in database
Track 14 not present in database
Track 15 not present in database
Track 16 not present in database
Track 17 not present in database
Track 18 not present in database
Track 19 not present in database
Track 20 not present in database
Track 21 not present in database
Track 22 not present in database
Track 23 not present in database
Track 24 not present in database
Track 25 not present in database
Track 26 not present in database
Track 27 not present in database
Track 28 not present in database
Track 29 not present in database
Track 30 not present in database
Track 31 not present in database
Track 32 not present in database
Track 33 not present in database
Track 34 not present in database
Track 35 not present in database
Track 36 not present in database

None of the tracks are present in the AccurateRip database

End of status report

==== Log checksum 478B029BFCFB9C94BF9FBF25652F5652777260CB780D515607A5BC25C87E558F ====
[__/su_spoiler][_/su_spoiler]

CUETools 2.1.5
CUETools 2.1.5 Disc 1

[CUETools log; Date: 4/21/2015 8:11:07 PM; Version: 2.1.5]
[CTDB TOCID: ocHdEzj7qPe2YDhmhqp.FvdxQrU-] found.
Track | CTDB Status
1 | (140/140) Accurately ripped
2 | (140/140) Accurately ripped
3 | (140/140) Accurately ripped
4 | (139/140) Accurately ripped
5 | (140/140) Accurately ripped
6 | (140/140) Accurately ripped
7 | (140/140) Accurately ripped
8 | (140/140) Accurately ripped
9 | (140/140) Accurately ripped
10 | (140/140) Accurately ripped
11 | (140/140) Accurately ripped
12 | (140/140) Accurately ripped
13 | (140/140) Accurately ripped
14 | (140/140) Accurately ripped
15 | (140/140) Accurately ripped
16 | (140/140) Accurately ripped
17 | (140/140) Accurately ripped
18 | (140/140) Accurately ripped
19 | (140/140) Accurately ripped
20 | (140/140) Accurately ripped
21 | (139/140) Accurately ripped
22 | (140/140) Accurately ripped
23 | (140/140) Accurately ripped
24 | (140/140) Accurately ripped
25 | (139/140) Accurately ripped
26 | (140/140) Accurately ripped
27 | (140/140) Accurately ripped
28 | (140/140) Accurately ripped
29 | (140/140) Accurately ripped
30 | (140/140) Accurately ripped
31 | (140/140) Accurately ripped
32 | (140/140) Accurately ripped
33 | (140/140) Accurately ripped
34 | (140/140) Accurately ripped
35 | (140/140) Accurately ripped
[AccurateRip ID: 004e6ae6-07b78bdb-ea0f8323] found.
Track [ CRC | V2 ] Status
01 [329bbef2|c550479e] (007+055/158) Accurately ripped
02 [d94c5eba|37b1438c] (007+056/159) Accurately ripped
03 [c90c7f5f|99802a59] (007+055/157) Accurately ripped
04 [4b954470|920cdf95] (007+057/160) Accurately ripped
05 [12a99cea|9214a61e] (007+057/160) Accurately ripped
06 [5a2dfd62|1bcd4219] (007+057/160) Accurately ripped
07 [84dffc2f|1e3d75e2] (007+057/161) Accurately ripped
08 [4be9b885|c2f1db6f] (007+057/161) Accurately ripped
09 [58649a74|b17fe977] (007+057/160) Accurately ripped
10 [44727b5e|a0b182b9] (007+057/160) Accurately ripped
11 [10c991f7|4c617fc2] (007+057/160) Accurately ripped
12 [ee61e8f2|2f7e3777] (007+057/160) Accurately ripped
13 [3750301c|763ffde6] (007+055/158) Accurately ripped
14 [007a5b47|64c75746] (007+057/160) Accurately ripped
15 [dfdb5200|feaced96] (007+057/160) Accurately ripped
16 [d9937c49|49acae19] (007+057/160) Accurately ripped
17 [b0c317ca|215fa9c4] (007+055/158) Accurately ripped
18 [5cebdac7|26880d6c] (007+057/160) Accurately ripped
19 [49f09ba8|cf7c2ee1] (007+055/158) Accurately ripped
20 [b1e41b99|35cc59aa] (007+057/160) Accurately ripped
21 [6a4de1a5|dc72ca5c] (007+057/160) Accurately ripped
22 [da9beadc|4e502d7d] (007+057/160) Accurately ripped
23 [6a416856|2cefd936] (007+055/158) Accurately ripped
24 [cefb5e2c|f400ad8d] (006+057/155) Accurately ripped
25 [147da31b|6f0ae7a1] (007+057/156) Accurately ripped
26 [953bd081|9e7baa4e] (007+057/159) Accurately ripped
27 [2a74015b|42efe3c7] (007+057/160) Accurately ripped
28 [60732925|6779300f] (007+056/157) Accurately ripped
29 [ec37110f|3b1698ce] (007+057/158) Accurately ripped
30 [c78b78e9|b8df1378] (007+057/160) Accurately ripped
31 [ba7539bc|863ed221] (007+056/159) Accurately ripped
32 [bd025dc9|1029fba2] (007+057/160) Accurately ripped
33 [4cae279b|ff0d032b] (007+056/158) Accurately ripped
34 [17f643c2|4173d4cf] (007+055/156) Accurately ripped
35 [ec19012f|0eef5e56] (007+057/156) Accurately ripped
Offsetted by 6:
01 [cca1ec78] (004/158) Accurately ripped
02 [39eb503b] (004/159) Accurately ripped
03 [cbfae190] (004/157) Accurately ripped
04 [1a4d1be3] (004/160) Accurately ripped
05 [7fdc30a9] (004/160) Accurately ripped
06 [52c3950a] (004/160) Accurately ripped
07 [fd0eddb8] (004/161) Accurately ripped
08 [fe0b810c] (004/161) Accurately ripped
09 [e59b05ec] (004/160) Accurately ripped
10 [fdb213dd] (004/160) Accurately ripped
11 [de945122] (004/160) Accurately ripped
12 [9cb0c7cb] (004/160) Accurately ripped
13 [372651e7] (004/158) Accurately ripped
14 [f30c3ccf] (004/160) Accurately ripped
15 [8abea19a] (004/160) Accurately ripped
16 [f257f62b] (004/160) Accurately ripped
17 [019d80da] (004/158) Accurately ripped
18 [696b3b96] (004/160) Accurately ripped
19 [4cfc74f2] (004/158) Accurately ripped
20 [83f13a08] (004/160) Accurately ripped
21 [d9a19dc5] (004/160) Accurately ripped
22 [a19510e4] (004/160) Accurately ripped
23 [1c7ae7c4] (004/158) Accurately ripped
24 [879c7473] (004/155) Accurately ripped
25 [22d4b3b6] (004/156) Accurately ripped
26 [7268ae18] (004/159) Accurately ripped
27 [101dba3c] (004/160) Accurately ripped
28 [a178b922] (004/157) Accurately ripped
29 [885c72e0] (004/158) Accurately ripped
30 [368ab87a] (004/160) Accurately ripped
31 [a7849f0e] (004/159) Accurately ripped
32 [1e5b2be1] (004/160) Accurately ripped
33 [aa910ca2] (004/158) Accurately ripped
34 [538b24e4] (004/156) Accurately ripped
35 [470885e1] (004/156) Accurately ripped
Offsetted by -90:
01 [b08b6cd0] (000/158) No match (V2 was not tested)
02 [3f1c59e0] (000/159) No match (V2 was not tested)
03 [9b473287] (000/157) No match (V2 was not tested)
04 [81dbf186] (000/160) No match (V2 was not tested)
05 [9ffcdede] (000/160) No match (V2 was not tested)
06 [5ec2d090] (000/160) No match (V2 was not tested)
07 [84f76248] (000/161) No match (V2 was not tested)
08 [1787805b] (000/161) No match (V2 was not tested)
09 [9a401454] (000/160) No match (V2 was not tested)
10 [a787e8ed] (000/160) No match (V2 was not tested)
11 [77b679d7] (000/160) No match (V2 was not tested)
12 [2fbfb006] (000/160) No match (V2 was not tested)
13 [96622bd0] (000/158) No match (V2 was not tested)
14 [5a19e254] (000/160) No match (V2 was not tested)
15 [d31d6a6d] (000/160) No match (V2 was not tested)
16 [f6fdcc85] (000/160) No match (V2 was not tested)
17 [809ede7a] (000/158) No match (V2 was not tested)
18 [c5bf1d8a] (000/160) No match (V2 was not tested)
19 [dd10e342] (000/158) No match (V2 was not tested)
20 [88920121] (000/160) No match (V2 was not tested)
21 [9e5d3192] (000/160) No match (V2 was not tested)
22 [3ecdedfe] (000/160) No match (V2 was not tested)
23 [d743f620] (000/158) No match (V2 was not tested)
24 [ad518ddb] (000/155) No match (V2 was not tested)
25 [630ae75d] (000/156) No match (V2 was not tested)
26 [cf897352] (000/159) No match (V2 was not tested)
27 [ac0ce40d] (000/160) No match (V2 was not tested)
28 [b15c2950] (000/157) No match (V2 was not tested)
29 [8d4af41d] (000/158) No match (V2 was not tested)
30 [e62f48f0] (000/160) No match (V2 was not tested)
31 [a09a17f6] (000/159) No match (V2 was not tested)
32 [bfe2fc6f] (000/160) No match (V2 was not tested)
33 [1c172581] (000/158) No match (V2 was not tested)
34 [3aa00c5d] (000/156) No match (V2 was not tested)
35 [e31d1e38] (000/156) No match (V2 was not tested)

Track Peak [ CRC32 ] [W/O NULL] [ LOG ]
-- 99.8 [5D552551] [519FE8D8] CRC32
01 38.4 [3CE9041A] [15EAD2A2]
02 88.1 [5D03AAB8] [BAFB853F]
03 48.0 [AEBBD491] [35B72A67]
04 91.2 [CACAF99A] [62BE3275]
05 89.1 [47959BA2] [8CE99740]
06 89.0 [C5919390] [442683B5]
07 79.0 [C109C63E] [38446F76]
08 81.6 [AA86FEF8] [B20ADF04]
09 73.4 [0E3CC796] [7A7951FC]
10 70.7 [AD4DF78C] [28045175]
11 70.7 [B55E3089] [BC20D438]
12 70.7 [FCF5556D] [2517A371]
13 36.4 [2E330051] [526833BB]
14 70.6 [DDB09EB3] [1FD06E76]
15 88.7 [C5B8CC04] [D22B7D38]
16 66.7 [EB42043C] [741FBAF5]
17 58.1 [CDDC5405] [988913D2]
18 70.7 [76F0137E] [A85D1210]
19 44.3 [23DC3213] [2362442B]
20 99.8 [DF813D14] [C3615AB4]
21 74.6 [A1F92064] [DBCB7C2D]
22 77.0 [52105564] [5FE8A18F]
23 34.4 [59F63AF4] [A2B8FE35]
24 78.6 [C6939AB9] [D9289FFB]
25 68.7 [D4FA6D18] [6925F251]
26 73.6 [B94D1B39] [92060BB1]
27 88.9 [41BDAA44] [73290D41]
28 84.6 [AE24A186] [520F7CDF]
29 69.5 [111009CE] [0AFF3565]
30 65.0 [753DDF0A] [BBF066DE]
31 68.7 [6BB2DA17] [3D9001F0]
32 76.1 [CFBB19ED] [9BA061ED]
33 79.2 [45BA0A77] [A08366D8]
34 33.1 [06AF5373] [BD2C9F7D]
35 65.7 [85015807] [1B67D142]
[__/su_spoiler]

CUETools 2.1.5 Disc 2

[CUETools log; Date: 4/21/2015 8:11:45 PM; Version: 2.1.5]
[CTDB TOCID: 60Rn1i25.Y6hD1Dkuvrfxf_7Dls-] found.
Track | CTDB Status
1 | (131/131) Accurately ripped
2 | (131/131) Accurately ripped
3 | (131/131) Accurately ripped
4 | (131/131) Accurately ripped
5 | (131/131) Accurately ripped
6 | (131/131) Accurately ripped
7 | (131/131) Accurately ripped
8 | (131/131) Accurately ripped
9 | (131/131) Accurately ripped
10 | (131/131) Accurately ripped
11 | (131/131) Accurately ripped
12 | (131/131) Accurately ripped
13 | (131/131) Accurately ripped
14 | (131/131) Accurately ripped
15 | (131/131) Accurately ripped
16 | (131/131) Accurately ripped
17 | (131/131) Accurately ripped
18 | (131/131) Accurately ripped
19 | (131/131) Accurately ripped
20 | (131/131) Accurately ripped
21 | (131/131) Accurately ripped
22 | (131/131) Accurately ripped
23 | (131/131) Accurately ripped
24 | (131/131) Accurately ripped
25 | (131/131) Accurately ripped
26 | (131/131) Accurately ripped
27 | (131/131) Accurately ripped
28 | (131/131) Accurately ripped
29 | (131/131) Accurately ripped
30 | (131/131) Accurately ripped
31 | (131/131) Accurately ripped
32 | (131/131) Accurately ripped
33 | (131/131) Accurately ripped
34 | (131/131) Accurately ripped
35 | (131/131) Accurately ripped
36 | (131/131) Accurately ripped
[AccurateRip ID: 00596a55-08f3c50a-1c106924] found.
Track [ CRC | V2 ] Status
01 [236a64e4|7310733f] (007+055/160) Accurately ripped
02 [ba677344|03a807b1] (007+057/162) Accurately ripped
03 [981028c8|621abe2c] (007+056/160) Accurately ripped
04 [c45c788c|20d76f0f] (007+057/162) Accurately ripped
05 [2f4a6d47|7d3bb847] (007+056/160) Accurately ripped
06 [26a67163|70976734] (007+057/162) Accurately ripped
07 [dc52c04d|4d2ea536] (007+057/162) Accurately ripped
08 [dbcde66b|d6146f3a] (007+057/162) Accurately ripped
09 [75d59611|7cb38a2b] (007+057/161) Accurately ripped
10 [e7d9731c|93b8f4ef] (007+057/160) Accurately ripped
11 [3e97b9b9|52d3da44] (007+056/160) Accurately ripped
12 [45f247b3|86c8ef7f] (007+057/162) Accurately ripped
13 [fb80937a|5e4bcb37] (007+057/162) Accurately ripped
14 [17889875|5df73b94] (007+057/162) Accurately ripped
15 [24de1874|aefabc0a] (007+057/162) Accurately ripped
16 [78a36739|0ed7a97f] (007+058/163) Accurately ripped
17 [a8192554|dd991a18] (007+058/163) Accurately ripped
18 [6593545e|b6b005c8] (007+058/163) Accurately ripped
19 [f10b54c6|96793c19] (007+058/163) Accurately ripped
20 [d5304a45|ab0db9ee] (007+058/163) Accurately ripped
21 [3406b4fd|62034702] (006+058/162) Accurately ripped
22 [b32be9c4|498e0184] (007+058/164) Accurately ripped
23 [ef40cc73|289cfc16] (007+058/162) Accurately ripped
24 [0cf36fa6|344788a7] (007+058/162) Accurately ripped
25 [fe648cbc|959537ce] (007+057/161) Accurately ripped
26 [c4d6672b|246b54cb] (007+058/163) Accurately ripped
27 [e3d02899|49acd499] (007+058/163) Accurately ripped
28 [d28e17bf|e24e8e59] (007+057/161) Accurately ripped
29 [2f1cc00a|e2c13051] (007+058/162) Accurately ripped
30 [53ae041a|abc6cbae] (007+058/163) Accurately ripped
31 [0116ee72|ead8d5d3] (007+057/162) Accurately ripped
32 [72e52028|cd03b451] (007+058/163) Accurately ripped
33 [574b6371|1719f886] (007+058/162) Accurately ripped
34 [8885ce54|b5c21178] (007+058/162) Accurately ripped
35 [1db7c24f|75ae4808] (007+057/160) Accurately ripped
36 [b165228e|cf48cc10] (007+057/160) Accurately ripped
Offsetted by 6:
01 [d790b551] (006/160) Accurately ripped
02 [753f3b4b] (006/162) Accurately ripped
03 [d6727a85] (006/160) Accurately ripped
04 [884e3838] (006/162) Accurately ripped
05 [36bdcd76] (006/160) Accurately ripped
06 [66106641] (006/162) Accurately ripped
07 [63c7b164] (006/162) Accurately ripped
08 [2411ba3b] (006/162) Accurately ripped
09 [1f474b09] (006/161) Accurately ripped
10 [1971b96e] (006/160) Accurately ripped
11 [60108e65] (006/160) Accurately ripped
12 [1f5cc5af] (006/162) Accurately ripped
13 [a16be863] (006/162) Accurately ripped
14 [52862949] (006/162) Accurately ripped
15 [0e0c6bf0] (006/162) Accurately ripped
16 [142a543d] (006/163) Accurately ripped
17 [f90b485c] (006/163) Accurately ripped
18 [63856e5f] (006/163) Accurately ripped
19 [52327995] (006/163) Accurately ripped
20 [893b82c9] (006/163) Accurately ripped
21 [a16502bf] (006/162) Accurately ripped
22 [5de4f740] (006/164) Accurately ripped
23 [8f7dd264] (006/162) Accurately ripped
24 [89443717] (006/162) Accurately ripped
25 [c3ed29a0] (006/161) Accurately ripped
26 [b53c2d27] (006/163) Accurately ripped
27 [0b910f7e] (006/163) Accurately ripped
28 [fba6bb4a] (006/161) Accurately ripped
29 [c302f172] (005/162) Accurately ripped
30 [dc8caa53] (006/163) Accurately ripped
31 [6fa886f2] (006/162) Accurately ripped
32 [c1012458] (006/163) Accurately ripped
33 [de85d26f] (006/162) Accurately ripped
34 [29033d17] (006/162) Accurately ripped
35 [cf41edf8] (006/160) Accurately ripped
36 [b682ce13] (006/160) Accurately ripped
Offsetted by -90:
01 [30b99672] (000/160) No match (V2 was not tested)
02 [0ee51560] (000/162) No match (V2 was not tested)
03 [f06775d8] (000/160) No match (V2 was not tested)
04 [03a0a692] (000/162) No match (V2 was not tested)
05 [54edf2fd] (000/160) No match (V2 was not tested)
06 [4265de58] (000/162) No match (V2 was not tested)
07 [1817fd1d] (000/162) No match (V2 was not tested)
08 [6d33312e] (000/162) No match (V2 was not tested)
09 [8ae59eef] (000/161) No match (V2 was not tested)
10 [35a19f62] (000/160) No match (V2 was not tested)
11 [3741e3d6] (000/160) No match (V2 was not tested)
12 [4ffc67a1] (000/162) No match (V2 was not tested)
13 [3e10907b] (000/162) No match (V2 was not tested)
14 [4e348ec1] (000/162) No match (V2 was not tested)
15 [05063f63] (000/162) No match (V2 was not tested)
16 [d4d7cbb2] (000/163) No match (V2 was not tested)
17 [c445b7f6] (000/163) No match (V2 was not tested)
18 [355ca33c] (000/163) No match (V2 was not tested)
19 [47cbb70c] (000/163) No match (V2 was not tested)
20 [490efd17] (000/163) No match (V2 was not tested)
21 [5c1fdca5] (000/162) No match (V2 was not tested)
22 [2baa1355] (000/164) No match (V2 was not tested)
23 [6ac6ab49] (000/162) No match (V2 was not tested)
24 [376a2b97] (000/162) No match (V2 was not tested)
25 [5b7d7f87] (000/161) No match (V2 was not tested)
26 [a6ac5e4e] (000/163) No match (V2 was not tested)
27 [c5da29af] (000/163) No match (V2 was not tested)
28 [cef31f3c] (000/161) No match (V2 was not tested)
29 [7098dd52] (000/162) No match (V2 was not tested)
30 [3d34e637] (000/163) No match (V2 was not tested)
31 [c26ec3e7] (000/162) No match (V2 was not tested)
32 [4bf8e26c] (000/163) No match (V2 was not tested)
33 [380fa5a5] (000/162) No match (V2 was not tested)
34 [62cb5e9f] (000/162) No match (V2 was not tested)
35 [50a7f217] (000/160) No match (V2 was not tested)
36 [8bc33952] (000/160) No match (V2 was not tested)

Track Peak [ CRC32 ] [W/O NULL] [ LOG ]
-- 99.8 [9C0CBF31] [456D6F95] CRC32
01 45.9 [07D207DB] [1FFFB274]
02 75.6 [58ECF2BA] [497A2E19]
03 37.1 [BCAC9BA2] [A87828D1]
04 75.0 [8A4D4051] [07E1475C]
05 44.5 [13C6B51E] [A3D8E921]
06 75.2 [8A88D9BB] [E48E66E7]
07 82.9 [7D3C1B70] [96CE631C]
08 83.8 [06F8E14E] [11F03489]
09 93.7 [DCF9C60B] [67735463]
10 66.5 [24241429] [94E31830]
11 35.6 [EA14FA2A] [DA27F7D6]
12 68.1 [4D4EB4E6] [D38F1291]
13 83.7 [5CFC16A6] [99DE3A60]
14 67.3 [7C894AD9] [F36F86A7]
15 70.4 [1C866C8A] [CEBFF19B]
16 59.6 [53854D21] [8E59CA18]
17 76.6 [8F4EB00F] [BE43FEE8]
18 88.9 [B9C24169] [A59ABE14]
19 70.8 [FB24E64B] [F9E88B56]
20 70.3 [9571A529] [DF23FA0D]
21 83.7 [795A4E73] [467EDDA6]
22 68.6 [0ACCD305] [7F15EE3B]
23 78.9 [7AB5F4B0] [5E3ADC0D]
24 99.8 [F9590C7B] [75423A11]
25 47.6 [0B411094] [9258800C]
26 55.4 [20EF78D9] [7D08F0AA]
27 63.9 [245BEB3B] [6C4A1A3E]
28 31.1 [90837F01] [C8AB57E4]
29 61.1 [D106E1D7] [329FD1C6]
30 95.9 [D40204AF] [C893803F]
31 44.3 [7C51AF2E] [2F51EB38]
32 57.4 [3F4C2386] [615A9946]
33 56.6 [5CEEE6BC] [B4F7B117]
34 52.0 [48E6F89A] [BE4E2CEF]
35 76.5 [FBECEB09] [30E794D6]
36 81.9 [8239A413] [DD7AA062]
[__/su_spoiler][_/su_spoiler]

The Beatles - On Air - Live At The BBC Volume 2 (2013)
The Beatles - On Air - Live At The BBC Volume 2 (2013)

The Beatles – On Air – Live At The BBC Volume 2 (2013)
EAC Rip | FLAC Image + Cue + Log| Full Scans @600 dpi, JPG
Label: Universal / Apple | Cat#: 3749169 | Genre: Classic Rock

Disc 1:
01. And Here We Are Again – 0:15
02. Words Of Love – 1:56
03. How About It, Gorgeous? – 0:37
04. Do You Want to Know a Secret? – 1:48
05. Lucille – 2:29
06. Hey, Paul… – 0:21
07. Anna (Go to Him) – 2:50
08. Hello! – 0:19
09. Please Please Me – 1:55
10. Misery – 1:50
11. I’m Talking About You – 1:52
12. A Real Treat – 0:37
13. Boys – 2:29
14. Absolutely Fab – 0:27
15. Chains – 2:15
16. Ask Me Why – 1:54
17. Till There Was You – 2:16
18. Lend Me Your Comb – 1:47
19. Lower 5E – 0:23
20. Hippy Hippy Shake – 1:46
21. Roll Over Beethoven – 2:22
22. There’s a Place – 1:49
23. Bumper Bundle – 0:49
24. P.S. I Love You – 1:59
25. Please Mr. Postman – 2:16
26. Beautiful Dreamer – 1:46
27. Devil In Her Heart – 2:22
28. The 49 Weeks – 0:17
29. Sure to Fall (in Love with You) – 2:21
30. Never Mind, Eh? – 0:34
31. Twist and Shout – 2:25
32. Bye, Bye – 0:24
Bonus Tracks
33. John – Pop Profile (Bonus interview track) – 8:22
34. George – Pop Profile (Bonus interview track) – 8:06

Disc 2:
01. I Saw Her Standing There – 2:36
02. Glad All Over – 1:52
03. Lift Lid Again – 0:37
04. I’ll Get You – 2:02
05. She Loves You – 2:15
06. Memphis Tennessee – 2:16
07. Happy Birthday Dear Saturday Club – 0:34
08. Now Hush, Hush – 0:24
09. From Me to You – 1:51
10. Money (That’s What I Want) – 2:43
11. I Want To Hold Your Hand – 2:23
12. Brian Bathtubes – 0:59
13. This Boy – 2:16
14. If I Wasn’t In America – 0:45
15. I Got a Woman – 2:36
16. Long Tall Sally – 1:58
17. If I Fell – 2:09
18. A Hard Job Writing Them – 1:19
19. And I Love Her – 2:20
20. Oh, Can’t We? Yes We Can – 0:20
21. You Can’t Do That – 2:32
22. Honey Don’t – 2:24
23. I’ll Follow the Sun – 1:51
24. Green With Black Shutters – 0:56
25. Kansas City/Hey-Hey-Hey-Hey! – 2:43
26. That’s What We’re Here For – 0:24
27. I Feel Fine (studio out-take) – 3:29
Bonus Tracks
28. Paul – Pop Profile (Bonus interview track) – 7:50
29. Ringo – Pop Profile (Bonus interview track) – 8:04

EAC Log
EAC Log Disc 1

Exact Audio Copy V1.0 beta 3 from 29. August 2011

EAC extraction logfile from 30. November 2013, 0:26

The Beatles / On Air - Live At The BBC Volume 2 CD1

Used drive : ATAPI iHAS124 B Adapter: 2 ID: 0

Read mode : Secure
Utilize accurate stream : Yes
Defeat audio cache : Yes
Make use of C2 pointers : No

Read offset correction : 6
Overread into Lead-In and Lead-Out : No
Fill up missing offset samples with silence : Yes
Delete leading and trailing silent blocks : No
Null samples used in CRC calculations : Yes
Used interface : Native Win32 interface for Win NT & 2000

Used output format : User Defined Encoder
Selected bitrate : 1024 kBit/s
Quality : High
Add ID3 tag : No
Command line compressor : C:\Program Files (x86)\Exact Audio Copy\FLAC\FLAC.EXE
Additional command line options : -8 -V -T "ARTIST=%artist%" -T "TITLE=%title%" -T "ALBUM=%albumtitle%" -T "DATE=%year%" -T "TRACKNUMBER=%tracknr%" -T "GENRE=%genre%" -T "PERFORMER=%albuminterpret%" -T "COMPOSER=%composer%" %haslyrics%--tag-from-file=LYRICS="%lyricsfile%"%haslyrics% -T "ALBUMARTIST=%albumartist%" -T "DISCNUMBER=%cdnumber%" -T "TOTALDISCS=%totalcds%" -T "TOTALTRACKS=%numtracks%" -T "COMMENT=%comment%" %source% -o %dest%

TOC of the extracted CD

Track | Start | Length | Start sector | End sector
---------------------------------------------------------
1 | 0:00.00 | 0:15.33 | 0 | 1157
2 | 0:15.33 | 1:55.56 | 1158 | 9838
3 | 2:11.14 | 0:37.20 | 9839 | 12633
4 | 2:48.34 | 1:47.39 | 12634 | 20697
5 | 4:35.73 | 2:28.60 | 20698 | 31857
6 | 7:04.58 | 0:21.05 | 31858 | 33437
7 | 7:25.63 | 2:49.42 | 33438 | 46154
8 | 10:15.30 | 0:18.66 | 46155 | 47570
9 | 10:34.21 | 1:55.33 | 47571 | 56228
10 | 12:29.54 | 1:49.43 | 56229 | 64446
11 | 14:19.22 | 1:52.10 | 64447 | 72856
12 | 16:11.32 | 0:36.54 | 72857 | 75610
13 | 16:48.11 | 2:28.58 | 75611 | 86768
14 | 19:16.69 | 0:27.29 | 86769 | 88822
15 | 19:44.23 | 2:15.09 | 88823 | 98956
16 | 21:59.32 | 1:54.16 | 98957 | 107522
17 | 23:53.48 | 2:16.13 | 107523 | 117735
18 | 26:09.61 | 1:46.64 | 117736 | 125749
19 | 27:56.50 | 0:23.23 | 125750 | 127497
20 | 28:19.73 | 1:46.10 | 127498 | 135457
21 | 30:06.08 | 2:21.64 | 135458 | 146096
22 | 32:27.72 | 1:48.72 | 146097 | 154268
23 | 34:16.69 | 0:49.24 | 154269 | 157967
24 | 35:06.18 | 1:59.25 | 157968 | 166917
25 | 37:05.43 | 2:16.37 | 166918 | 177154
26 | 39:22.05 | 1:46.08 | 177155 | 185112
27 | 41:08.13 | 2:21.50 | 185113 | 195737
28 | 43:29.63 | 0:16.47 | 195738 | 196984
29 | 43:46.35 | 2:20.49 | 196985 | 207533
30 | 46:07.09 | 0:34.21 | 207534 | 210104
31 | 46:41.30 | 2:25.24 | 210105 | 221003
32 | 49:06.54 | 0:24.05 | 221004 | 222808
33 | 49:30.59 | 8:21.66 | 222809 | 260449
34 | 57:52.50 | 8:05.62 | 260450 | 296886

Range status and errors

Selected range

Filename G:\CD\The Beatles - On Air - Live At The BBC Volume 2 CD1.wav

Peak level 99.8 %
Extraction speed 6.4 X
Range quality 100.0 %
Test CRC 684A65BB
Copy CRC 684A65BB
Copy OK

No errors occurred

AccurateRip summary

Track 1 not present in database
Track 2 not present in database
Track 3 not present in database
Track 4 not present in database
Track 5 not present in database
Track 6 not present in database
Track 7 not present in database
Track 8 not present in database
Track 9 not present in database
Track 10 not present in database
Track 11 not present in database
Track 12 not present in database
Track 13 not present in database
Track 14 not present in database
Track 15 not present in database
Track 16 not present in database
Track 17 not present in database
Track 18 not present in database
Track 19 not present in database
Track 20 not present in database
Track 21 not present in database
Track 22 not present in database
Track 23 not present in database
Track 24 not present in database
Track 25 not present in database
Track 26 not present in database
Track 27 not present in database
Track 28 not present in database
Track 29 not present in database
Track 30 not present in database
Track 31 not present in database
Track 32 not present in database
Track 33 not present in database
Track 34 not present in database

None of the tracks are present in the AccurateRip database

End of status report

==== Log checksum D6D6F827685A10E83160A786C3F2C5EEA94B76318762FFDC181A4A6950B5028F ====
[__/su_spoiler]

EAC Log Disc 2

Exact Audio Copy V1.0 beta 3 from 29. August 2011

EAC extraction logfile from 30. November 2013, 0:49

The Beatles / On Air - Live At The BBC Volume 2 CD2

Used drive : ATAPI iHAS124 B Adapter: 2 ID: 0

Read mode : Secure
Utilize accurate stream : Yes
Defeat audio cache : Yes
Make use of C2 pointers : No

Read offset correction : 6
Overread into Lead-In and Lead-Out : No
Fill up missing offset samples with silence : Yes
Delete leading and trailing silent blocks : No
Null samples used in CRC calculations : Yes
Used interface : Native Win32 interface for Win NT & 2000

Used output format : User Defined Encoder
Selected bitrate : 1024 kBit/s
Quality : High
Add ID3 tag : No
Command line compressor : C:\Program Files (x86)\Exact Audio Copy\FLAC\FLAC.EXE
Additional command line options : -8 -V -T "ARTIST=%artist%" -T "TITLE=%title%" -T "ALBUM=%albumtitle%" -T "DATE=%year%" -T "TRACKNUMBER=%tracknr%" -T "GENRE=%genre%" -T "PERFORMER=%albuminterpret%" -T "COMPOSER=%composer%" %haslyrics%--tag-from-file=LYRICS="%lyricsfile%"%haslyrics% -T "ALBUMARTIST=%albumartist%" -T "DISCNUMBER=%cdnumber%" -T "TOTALDISCS=%totalcds%" -T "TOTALTRACKS=%numtracks%" -T "COMMENT=%comment%" %source% -o %dest%

TOC of the extracted CD

Track | Start | Length | Start sector | End sector
---------------------------------------------------------
1 | 0:00.00 | 2:35.55 | 0 | 11679
2 | 2:35.55 | 1:52.37 | 11680 | 20116
3 | 4:28.17 | 0:37.00 | 20117 | 22891
4 | 5:05.17 | 2:02.26 | 22892 | 32067
5 | 7:07.43 | 2:15.18 | 32068 | 42210
6 | 9:22.61 | 2:15.67 | 42211 | 52402
7 | 11:38.53 | 0:33.64 | 52403 | 54941
8 | 12:12.42 | 0:24.33 | 54942 | 56774
9 | 12:37.00 | 1:50.59 | 56775 | 65083
10 | 14:27.59 | 2:42.61 | 65084 | 77294
11 | 17:10.45 | 2:23.25 | 77295 | 88044
12 | 19:33.70 | 0:58.39 | 88045 | 92433
13 | 20:32.34 | 2:16.00 | 92434 | 102633
14 | 22:48.34 | 0:44.45 | 102634 | 105978
15 | 23:33.04 | 2:35.48 | 105979 | 117651
16 | 26:08.52 | 1:58.23 | 117652 | 126524
17 | 28:07.00 | 2:09.00 | 126525 | 136199
18 | 30:16.00 | 1:19.36 | 136200 | 142160
19 | 31:35.36 | 2:19.74 | 142161 | 152659
20 | 33:55.35 | 0:19.61 | 152660 | 154145
21 | 34:15.21 | 2:31.47 | 154146 | 165517
22 | 36:46.68 | 2:23.74 | 165518 | 176316
23 | 39:10.67 | 1:50.71 | 176317 | 184637
24 | 41:01.63 | 0:56.22 | 184638 | 188859
25 | 41:58.10 | 2:43.25 | 188860 | 201109
26 | 44:41.35 | 0:24.10 | 201110 | 202919
27 | 45:05.45 | 3:28.41 | 202920 | 218560
28 | 48:34.11 | 7:50.26 | 218561 | 253836
29 | 56:24.37 | 8:03.57 | 253837 | 290118

Range status and errors

Selected range

Filename G:\CD\The Beatles - On Air - Live At The BBC Volume 2 CD2.wav

Peak level 99.8 %
Extraction speed 6.3 X
Range quality 100.0 %
Test CRC F271E73A
Copy CRC F271E73A
Copy OK

No errors occurred

AccurateRip summary

Track 1 not present in database
Track 2 not present in database
Track 3 not present in database
Track 4 not present in database
Track 5 not present in database
Track 6 not present in database
Track 7 not present in database
Track 8 not present in database
Track 9 not present in database
Track 10 not present in database
Track 11 not present in database
Track 12 not present in database
Track 13 not present in database
Track 14 not present in database
Track 15 not present in database
Track 16 not present in database
Track 17 not present in database
Track 18 not present in database
Track 19 not present in database
Track 20 not present in database
Track 21 not present in database
Track 22 not present in database
Track 23 not present in database
Track 24 not present in database
Track 25 not present in database
Track 26 not present in database
Track 27 not present in database
Track 28 not present in database
Track 29 not present in database

None of the tracks are present in the AccurateRip database

End of status report

==== Log checksum 512C7C9402210A1BF4156E8A6DC0BFBB75965D5C42EEF2C3D96FC28B0532BFA4 ====
[__/su_spoiler][_/su_spoiler]

CUETools 2.1.5
CUETools 2.1.5 Disc 1

[CUETools log; Date: 4/22/2015 1:20:11 AM; Version: 2.1.5]
[CTDB TOCID: 59DEnHmo21WbvY4WWQc_2pohECI-] found.
Track | CTDB Status
1 | (279/279) Accurately ripped
2 | (279/279) Accurately ripped
3 | (279/279) Accurately ripped
4 | (279/279) Accurately ripped
5 | (279/279) Accurately ripped
6 | (279/279) Accurately ripped
7 | (279/279) Accurately ripped
8 | (279/279) Accurately ripped
9 | (279/279) Accurately ripped
10 | (279/279) Accurately ripped
11 | (279/279) Accurately ripped
12 | (279/279) Accurately ripped
13 | (279/279) Accurately ripped
14 | (279/279) Accurately ripped
15 | (279/279) Accurately ripped
16 | (279/279) Accurately ripped
17 | (279/279) Accurately ripped
18 | (279/279) Accurately ripped
19 | (279/279) Accurately ripped
20 | (279/279) Accurately ripped
21 | (279/279) Accurately ripped
22 | (279/279) Accurately ripped
23 | (279/279) Accurately ripped
24 | (279/279) Accurately ripped
25 | (279/279) Accurately ripped
26 | (279/279) Accurately ripped
27 | (279/279) Accurately ripped
28 | (279/279) Accurately ripped
29 | (279/279) Accurately ripped
30 | (279/279) Accurately ripped
31 | (279/279) Accurately ripped
32 | (279/279) Accurately ripped
33 | (279/279) Accurately ripped
34 | (278/279) Accurately ripped
[AccurateRip ID: 003f7a29-06197877-dc0f7622] found.
Track [ CRC | V2 ] Status
01 [97659eb4|8d5db4c2] (014+117/297) Accurately ripped
02 [b6d9386a|aeb3d2bb] (015+117/298) Accurately ripped
03 [83fe9e6c|4547c285] (014+116/295) Accurately ripped
04 [fb8478a9|e438b30c] (015+119/300) Accurately ripped
05 [c6bd14c1|7f0865d3] (015+119/300) Accurately ripped
06 [539c1b62|06c9f363] (014+117/297) Accurately ripped
07 [90ee0721|ccfbb65d] (015+119/300) Accurately ripped
08 [5dbe9096|5187fa5d] (014+117/297) Accurately ripped
09 [21960271|d5faf80b] (015+119/300) Accurately ripped
10 [b7fda3a0|6e3f872d] (015+119/300) Accurately ripped
11 [05846806|043946de] (015+119/304) Accurately ripped
12 [bee59400|dd4d8831] (014+117/299) Accurately ripped
13 [750cbf7e|2f4c1be2] (015+119/302) Accurately ripped
14 [4ad2af77|f30dbef9] (014+117/299) Accurately ripped
15 [4a447874|ca694de9] (015+119/302) Accurately ripped
16 [1fcdb9cb|1073a61d] (015+119/303) Accurately ripped
17 [938b5aba|a72fd278] (015+119/303) Accurately ripped
18 [8483dc9c|ce93db1c] (015+119/304) Accurately ripped
19 [09cf7617|ec6616be] (014+117/299) Accurately ripped
20 [5ebd7b13|a720e7ee] (015+119/304) Accurately ripped
21 [22fad56e|2527627a] (015+119/302) Accurately ripped
22 [b93b0ebd|368c892c] (015+119/302) Accurately ripped
23 [6576faa4|6a8ed76c] (014+117/299) Accurately ripped
24 [a57241b5|3141086f] (015+119/302) Accurately ripped
25 [34a24555|91d299ef] (015+119/301) Accurately ripped
26 [5d071555|b82ffe85] (015+119/304) Accurately ripped
27 [176ef629|5651a67b] (015+118/301) Accurately ripped
28 [ee8fb7af|9ccb0670] (014+117/299) Accurately ripped
29 [fa0f0073|4ea4f7d7] (015+118/300) Accurately ripped
30 [523af002|c0dd3cfb] (014+117/299) Accurately ripped
31 [4dc23cb1|ee890174] (015+119/302) Accurately ripped
32 [8c14be03|3582d413] (014+116/298) Accurately ripped
33 [2df0bc0c|513cf0f2] (014+110/287) Accurately ripped
34 [b03a341f|2966241a] (014+113/290) Accurately ripped
Offsetted by 6:
01 [3ec63c82] (010/297) Accurately ripped
02 [3e6aabde] (010/298) Accurately ripped
03 [e7f8afd5] (009/295) Accurately ripped
04 [c6a9ff7c] (010/300) Accurately ripped
05 [1a956c8a] (010/300) Accurately ripped
06 [43b31791] (010/297) Accurately ripped
07 [902d9437] (010/300) Accurately ripped
08 [e5be05d2] (010/297) Accurately ripped
09 [ffcbf682] (010/300) Accurately ripped
10 [559e195e] (010/300) Accurately ripped
11 [bb730ee7] (010/304) Accurately ripped
12 [05417eba] (010/299) Accurately ripped
13 [6d5e1fb5] (010/302) Accurately ripped
14 [a8e87d78] (010/299) Accurately ripped
15 [74a59657] (010/302) Accurately ripped
16 [155ac178] (010/303) Accurately ripped
17 [bbbf7d88] (010/303) Accurately ripped
18 [b36bd312] (010/304) Accurately ripped
19 [e5112b26] (010/299) Accurately ripped
20 [55e418de] (010/304) Accurately ripped
21 [1c8574fa] (010/302) Accurately ripped
22 [0ed1ba56] (010/302) Accurately ripped
23 [e0601cdc] (010/299) Accurately ripped
24 [c93f192f] (010/302) Accurately ripped
25 [bf341cc4] (010/301) Accurately ripped
26 [385657e8] (010/304) Accurately ripped
27 [500371df] (010/301) Accurately ripped
28 [b6f4a16d] (010/299) Accurately ripped
29 [1c71b059] (010/300) Accurately ripped
30 [e4858d01] (010/299) Accurately ripped
31 [d8b0119a] (010/302) Accurately ripped
32 [f0254b88] (010/298) Accurately ripped
33 [e8e3a820] (010/287) Accurately ripped
34 [72131f35] (011/290) Accurately ripped
Offsetted by -664:
01 [926c4578] (000/297) No match (V2 was not tested)
02 [09b2012c] (000/298) No match (V2 was not tested)
03 [723291c2] (000/295) No match (V2 was not tested)
04 [45fad393] (000/300) No match (V2 was not tested)
05 [1e42b546] (000/300) No match (V2 was not tested)
06 [07c40291] (000/297) No match (V2 was not tested)
07 [17bb1ee0] (000/300) No match (V2 was not tested)
08 [5ebf25d9] (000/297) No match (V2 was not tested)
09 [022831d7] (000/300) No match (V2 was not tested)
10 [4acc9e03] (000/300) No match (V2 was not tested)
11 [d82b25e0] (000/304) No match (V2 was not tested)
12 [9b6fd825] (000/299) No match (V2 was not tested)
13 [80c21e45] (000/302) No match (V2 was not tested)
14 [7233bada] (000/299) No match (V2 was not tested)
15 [6b4a5940] (000/302) No match (V2 was not tested)
16 [75fda7af] (000/303) No match (V2 was not tested)
17 [ec4b683d] (000/303) No match (V2 was not tested)
18 [928df725] (000/304) No match (V2 was not tested)
19 [84c01033] (000/299) No match (V2 was not tested)
20 [201d420b] (000/304) No match (V2 was not tested)
21 [bd160f72] (000/302) No match (V2 was not tested)
22 [d2cd2f0d] (000/302) No match (V2 was not tested)
23 [670d3990] (000/299) No match (V2 was not tested)
24 [cf18b065] (000/302) No match (V2 was not tested)
25 [039dd7ff] (000/301) No match (V2 was not tested)
26 [3fde67a6] (000/304) No match (V2 was not tested)
27 [ec06a26d] (000/301) No match (V2 was not tested)
28 [8a448e7e] (000/299) No match (V2 was not tested)
29 [9e962a04] (000/300) No match (V2 was not tested)
30 [de18f79c] (000/299) No match (V2 was not tested)
31 [f36c836d] (000/302) No match (V2 was not tested)
32 [d0118f9e] (000/298) No match (V2 was not tested)
33 [9710db46] (000/287) No match (V2 was not tested)
34 [2b97ce3f] (000/290) No match (V2 was not tested)

Track Peak [ CRC32 ] [W/O NULL] [ LOG ]
-- 99.8 [684A65BB] [0B9F6314] CRC32
01 52.4 [046455BE] [378DF6A7]
02 83.8 [570452EF] [6A76A058]
03 42.4 [82413A6B] [7B1B525D]
04 74.1 [C6C034A1] [8DCBF2FD]
05 88.9 [F7F3FFDC] [B7F75C11]
06 48.9 [8B4EC3EB] [2241865E]
07 71.5 [89C3CAA1] [BB7B8A89]
08 43.4 [DDEFC769] [BC086813]
09 70.8 [9A9F451D] [2B917818]
10 82.9 [E3C195F2] [6616CCD6]
11 99.3 [7B9DD531] [48AA5429]
12 69.1 [4C1579C5] [A1E37BC6]
13 82.8 [3660389F] [9205558B]
14 56.8 [2C4F6E69] [16FD2878]
15 82.5 [71C1611C] [675D7F83]
16 74.9 [90351A04] [B59F9F5F]
17 79.3 [DF25E943] [DA792356]
18 92.5 [F7EBF8CE] [28A4FCC0]
19 61.3 [15B160E2] [0A09D51A]
20 89.0 [E6CC52E1] [8E55AE13]
21 88.9 [8BF2EA13] [CBF487D1]
22 91.6 [2062E960] [0C354EE0]
23 52.1 [9C1BF17F] [784AAA59]
24 74.5 [0370313B] [62438104]
25 79.2 [20136610] [E6E1B103]
26 92.0 [19ACA33B] [9B7CDAE9]
27 84.9 [710C97FB] [F17ED1FA]
28 59.4 [02D0C790] [EBF5E10E]
29 88.6 [17034575] [6539B0AE]
30 62.5 [DC911C36] [BC9C345E]
31 99.8 [EFEF8675] [A1097031]
32 65.6 [24E4F055] [3B85CA30]
33 69.9 [34EBC1D6] [E3F42E5B]
34 71.2 [47A9DE13] [B9B24651]
[__/su_spoiler]

CUETools 2.1.5 Disc 2

[CUETools log; Date: 4/22/2015 1:20:40 AM; Version: 2.1.5]
[CTDB TOCID: HWLx_s9fPHh9ObVmPRf_scquyzI-] found.
Track | CTDB Status
1 | (282/282) Accurately ripped
2 | (282/282) Accurately ripped
3 | (282/282) Accurately ripped
4 | (282/282) Accurately ripped
5 | (282/282) Accurately ripped
6 | (282/282) Accurately ripped
7 | (282/282) Accurately ripped
8 | (282/282) Accurately ripped
9 | (282/282) Accurately ripped
10 | (282/282) Accurately ripped
11 | (282/282) Accurately ripped
12 | (282/282) Accurately ripped
13 | (282/282) Accurately ripped
14 | (282/282) Accurately ripped
15 | (282/282) Accurately ripped
16 | (282/282) Accurately ripped
17 | (282/282) Accurately ripped
18 | (282/282) Accurately ripped
19 | (282/282) Accurately ripped
20 | (282/282) Accurately ripped
21 | (282/282) Accurately ripped
22 | (282/282) Accurately ripped
23 | (282/282) Accurately ripped
24 | (282/282) Accurately ripped
25 | (282/282) Accurately ripped
26 | (282/282) Accurately ripped
27 | (282/282) Accurately ripped
28 | (282/282) Accurately ripped
29 | (281/282) Accurately ripped
[AccurateRip ID: 0035f3a7-0467c73e-990f1c1d] found.
Track [ CRC | V2 ] Status
01 [883c3bd1|91298f94] (015+116/294) Accurately ripped
02 [8616a138|29cd483f] (015+117/295) Accurately ripped
03 [f56da875|a5793a1b] (014+115/291) Accurately ripped
04 [3f92ea7b|9e2271ae] (015+117/294) Accurately ripped
05 [8d2e9f0a|255fb71a] (015+117/294) Accurately ripped
06 [47b7649e|fbf93fa5] (015+117/295) Accurately ripped
07 [3bd852d8|7c6a1a7c] (015+117/294) Accurately ripped
08 [165a6524|cff29641] (014+116/292) Accurately ripped
09 [b66142be|3f52f4ac] (015+118/295) Accurately ripped
10 [0483726d|c629f271] (015+118/296) Accurately ripped
11 [fce9b41f|e3aca388] (015+118/298) Accurately ripped
12 [3eed309e|a82dfaff] (014+116/293) Accurately ripped
13 [2d7b77d1|285e676e] (015+118/297) Accurately ripped
14 [e7fc9a69|38163585] (014+116/293) Accurately ripped
15 [4debea26|609dfc86] (015+118/297) Accurately ripped
16 [59591e31|129250cb] (015+118/297) Accurately ripped
17 [0ca9338c|f2f7851d] (015+118/297) Accurately ripped
18 [d422d477|7d15c321] (014+114/290) Accurately ripped
19 [a15284e4|308213fe] (015+117/296) Accurately ripped
20 [ea804f45|cf8b276f] (014+115/291) Accurately ripped
21 [d252927b|34372b35] (015+115/296) Accurately ripped
22 [94d9cb85|8de3161d] (015+117/295) Accurately ripped
23 [b3566827|829b2919] (015+117/296) Accurately ripped
24 [d8c7603d|9970a93b] (014+115/292) Accurately ripped
25 [3e6c5f52|5ba3577f] (015+117/295) Accurately ripped
26 [bc46f74c|fc30e85c] (014+115/292) Accurately ripped
27 [b327d047|03fb8990] (013+113/290) Accurately ripped
28 [721f9fb3|bbb33a06] (013+113/289) Accurately ripped
29 [dd12e265|56341d89] (014+114/288) Accurately ripped
Offsetted by 6:
01 [7f6056b1] (009/294) Accurately ripped
02 [27b823b5] (008/295) Accurately ripped
03 [a6304574] (008/291) Accurately ripped
04 [d45a90be] (008/294) Accurately ripped
05 [94ffe2b7] (009/294) Accurately ripped
06 [c912eca1] (008/295) Accurately ripped
07 [51ee9b8d] (008/294) Accurately ripped
08 [50d6b1a1] (008/292) Accurately ripped
09 [d896700d] (008/295) Accurately ripped
10 [6aec39bf] (008/296) Accurately ripped
11 [702b3404] (010/298) Accurately ripped
12 [335537f8] (008/293) Accurately ripped
13 [a64028a9] (009/297) Accurately ripped
14 [7d00dd76] (008/293) Accurately ripped
15 [69925a6f] (008/297) Accurately ripped
16 [623f977a] (009/297) Accurately ripped
17 [0cf6efea] (009/297) Accurately ripped
18 [6e686cc3] (008/290) Accurately ripped
19 [beade2a8] (009/296) Accurately ripped
20 [f8b56b09] (008/291) Accurately ripped
21 [8d266187] (009/296) Accurately ripped
22 [049bf150] (009/295) Accurately ripped
23 [a6a470ff] (009/296) Accurately ripped
24 [53385bca] (008/292) Accurately ripped
25 [b6c13b50] (009/295) Accurately ripped
26 [c38cb634] (008/292) Accurately ripped
27 [1f29af81] (009/290) Accurately ripped
28 [691722b3] (008/289) Accurately ripped
29 [e2f887cb] (007/288) Accurately ripped
Offsetted by -664:
01 [5744a91d] (000/294) No match (V2 was not tested)
02 [4fbea45e] (000/295) No match (V2 was not tested)
03 [4f66833b] (000/291) No match (V2 was not tested)
04 [628c926c] (000/294) No match (V2 was not tested)
05 [81cb5603] (000/294) No match (V2 was not tested)
06 [d6426eef] (000/295) No match (V2 was not tested)
07 [6cbf87b0] (000/294) No match (V2 was not tested)
08 [4cb05ef1] (000/292) No match (V2 was not tested)
09 [ce159f57] (000/295) No match (V2 was not tested)
10 [83684651] (000/296) No match (V2 was not tested)
11 [e0e8b612] (000/298) No match (V2 was not tested)
12 [b8744697] (000/293) No match (V2 was not tested)
13 [f36bd6ed] (000/297) No match (V2 was not tested)
14 [2c60265a] (000/293) No match (V2 was not tested)
15 [42b16544] (000/297) No match (V2 was not tested)
16 [7d54bb31] (000/297) No match (V2 was not tested)
17 [ee5b40f2] (000/297) No match (V2 was not tested)
18 [0edb4107] (000/290) No match (V2 was not tested)
19 [9efb2a93] (000/296) No match (V2 was not tested)
20 [9525cee4] (000/291) No match (V2 was not tested)
21 [872fb4a0] (000/296) No match (V2 was not tested)
22 [2e38957c] (000/295) No match (V2 was not tested)
23 [4de8c895] (000/296) No match (V2 was not tested)
24 [a2a10f6a] (000/292) No match (V2 was not tested)
25 [2d6e6059] (000/295) No match (V2 was not tested)
26 [0905872d] (000/292) No match (V2 was not tested)
27 [b5c6f55e] (000/290) No match (V2 was not tested)
28 [f5318b2b] (000/289) No match (V2 was not tested)
29 [8e1cdd9f] (000/288) No match (V2 was not tested)

Track Peak [ CRC32 ] [W/O NULL] [ LOG ]
-- 99.8 [F271E73A] [E74B3261] CRC32
01 69.0 [5E0CB92A] [9996DE76]
02 79.2 [322F574D] [167054CE]
03 36.9 [FAE56172] [7C0AF2CB]
04 68.1 [E3922BC3] [748E02FE]
05 99.8 [7B8AD986] [A8EEB7BD]
06 91.7 [B9A3BCCD] [E03B54D3]
07 74.9 [0089DF5D] [199A92EC]
08 79.0 [ACB839DF] [8255A24F]
09 89.8 [37941248] [F5CB29C9]
10 80.9 [4E336595] [E3745A6C]
11 62.8 [E5A88D3F] [949DD05E]
12 61.7 [4AACC495] [22008E52]
13 83.3 [32CC00AD] [CCFEC6AF]
14 69.8 [D5FDAB66] [89734D66]
15 71.5 [23D17B08] [E820012D]
16 98.6 [26842228] [5D3F8A70]
17 99.8 [A598E1D5] [AD2F4EE0]
18 56.3 [9E66A133] [066FCF75]
19 75.9 [845E3669] [5A0DC2C1]
20 51.1 [FDE52B8E] [D65B655E]
21 65.0 [0C1B786C] [2C1825B5]
22 98.9 [EEF2A784] [3349C4F6]
23 79.1 [455B136F] [FA0104F2]
24 69.1 [B8C81278] [415EBECF]
25 91.6 [825CF5B7] [C9617692]
26 32.1 [DD761465] [9D95C0E1]
27 82.7 [BD5A9990] [1432578D]
28 63.8 [42D2CEA4] [8C6D3ECD]
29 72.6 [A0F76196] [7B13A4C7]
[__/su_spoiler][_/su_spoiler]

Back & CD labels

imagebam.com imagebam.com imagebam.com imagebam.com imagebam.com imagebam.com imagebam.com imagebam.com

DOWNLOAD FROM
 
LMA_ThBe.2013.LATBBC.TC.part1.rar
LMA_ThBe.2013.LATBBC.TC.part2.rar
 
Password: www.LosslessMA.net
 
If you encounter broken links or other problem about this publication, please let me know
and write your comment below. I will reply and fix as soon as possible.