The Beatles – The U.S. Albums (2014) {Remastered, Box Set}

The Beatles - The U.S. Albums (2014) {Remastered, Box Set}

The Beatles – The U.S. Albums (2014) {Remastered, Box Set}
EAC Rip | 13xCD | FLAC Image + Cue + Log | Full Scans @600 dpi, JPG
FLAC: 4.08 GB | Full Scans (Covers & CD Labels): In same archive | Booklet & Box Covers: 195 MB | 3% RAR Recovery
Label: Capitol Records | Cat#: 602537614127 | Genre: Classic Rock

The U.S. Albums is a boxed set compilation comprising the remastered American albums released by the Beatles between 1964 and 1970. The boxed set was released on 21 January 2014 in the United States, marking the fiftieth anniversary of the Beatles’ first trip to the US and first American album from Capitol Records, Meet the Beatles!

All thirteen unique albums released by Capitol Records are included in the boxed set, eight of which were previously released in The Capitol Albums, Volume 1 and Volume 2. The set contains remastered mono and stereo versions of each album, except The Beatles’ Story and Hey Jude, which are presented only in stereo. Additionally, those two albums, Yesterday and Today, and the US versions of A Hard Day’s Night and Revolver, are released for the first time on CD in this boxed set.

Additional Info:
• Recorded Date: 1962–1970 at EMI, Trident, Olympic, Apple, Chappell, De Lane Lea and Regent Sound studios, London; Pathé Marconi Studio, Paris; EMI Studios, Bombay
• Released Date: 21 January 2014
• More information: Here

Disc Listing:

Meet The Beatles! (1964)

Meet The Beatles! (1964)

Meet The Beatles! (1964)
EAC Rip | FLAC Image + Cue + Log | Full Scans @600 dpi, JPG
Label: Capitol Records | Cat#: ST 2047 | Genre: Classic Rock

Tracklist:
01. I Want To Hold Your Hand (Mono) – 02:27
02. I Saw Her Standing There (Mono) – 02:54
03. This Boy (Mono) – 02:15
04. It Won’t Be Long (Mono) – 02:13
05. All I’ve Got To Do (Mono) – 02:04
06. All My Loving (Mono) – 02:08
07. Don’t Bother Me (Mono) – 02:29
08. Little Child (Mono) – 01:48
09. Till There Was You (Mono) – 02:15
10. Hold Me Tight (Mono) – 02:33
11. I Wanna Be Your Man (Mono) – 01:58
12. Not A Second Time (Mono) – 02:10
13. I Want To Hold Your Hand (Stereo) – 02:27
14. I Saw Her Standing There (Stereo) – 02:55
15. This Boy (Stereo) – 02:15
16. It Won’t Be Long (Stereo) – 02:13
17. All I’ve Got To Do (Stereo) – 02:04
18. All My Loving (Stereo) – 02:08
19. Don’t Bother Me (Stereo) – 02:29
20. Little Child (Stereo) – 01:48
21. Till There Was You (Stereo) – 02:15
22. Hold Me Tight (Stereo) – 02:33
23. I Wanna Be Your Man (Stereo) – 02:01
24. Not A Second Time (Stereo) – 02:06

EAC Log

Exact Audio Copy V1.0 beta 3 from 29. August 2011

EAC extraction logfile from 31. January 2014, 21:47

The Beatles / Meet The Beatles!

Used drive : ATAPI iHAS124 B Adapter: 2 ID: 0

Read mode : Secure
Utilize accurate stream : Yes
Defeat audio cache : Yes
Make use of C2 pointers : No

Read offset correction : 6
Overread into Lead-In and Lead-Out : No
Fill up missing offset samples with silence : Yes
Delete leading and trailing silent blocks : No
Null samples used in CRC calculations : Yes
Used interface : Native Win32 interface for Win NT & 2000

Used output format : User Defined Encoder
Selected bitrate : 1024 kBit/s
Quality : High
Add ID3 tag : No
Command line compressor : C:\Program Files (x86)\Exact Audio Copy\FLAC\FLAC.EXE
Additional command line options : -V -8 -T "Date=%year%" -T "Genre=%genre%" %source%

TOC of the extracted CD

Track | Start | Length | Start sector | End sector
---------------------------------------------------------
1 | 0:00.00 | 2:27.24 | 0 | 11048
2 | 2:27.24 | 2:54.59 | 11049 | 24157
3 | 5:22.08 | 2:15.44 | 24158 | 34326
4 | 7:37.52 | 2:13.47 | 34327 | 44348
5 | 9:51.24 | 2:04.38 | 44349 | 53686
6 | 11:55.62 | 2:08.06 | 53687 | 63292
7 | 14:03.68 | 2:29.55 | 63293 | 74522
8 | 16:33.48 | 1:48.03 | 74523 | 82625
9 | 18:21.51 | 2:15.52 | 82626 | 92802
10 | 20:37.28 | 2:33.28 | 92803 | 104305
11 | 23:10.56 | 1:58.52 | 104306 | 113207
12 | 25:09.33 | 2:10.30 | 113208 | 122987
13 | 27:19.63 | 2:27.16 | 122988 | 134028
14 | 29:47.04 | 2:55.58 | 134029 | 147211
15 | 32:42.62 | 2:15.33 | 147212 | 157369
16 | 34:58.20 | 2:13.68 | 157370 | 167412
17 | 37:12.13 | 2:04.31 | 167413 | 176743
18 | 39:16.44 | 2:08.12 | 176744 | 186355
19 | 41:24.56 | 2:29.60 | 186356 | 197590
20 | 43:54.41 | 1:48.08 | 197591 | 205698
21 | 45:42.49 | 2:15.49 | 205699 | 215872
22 | 47:58.23 | 2:33.35 | 215873 | 227382
23 | 50:31.58 | 2:01.05 | 227383 | 236462
24 | 52:32.63 | 2:05.54 | 236463 | 245891

Range status and errors

Selected range

Filename G:\CD\The Beatles - Meet The Beatles!.wav

Peak level 97.5 %
Extraction speed 5.9 X
Range quality 100.0 %
Test CRC 351AF4BC
Copy CRC 351AF4BC
Copy OK

No errors occurred

AccurateRip summary

Track 1 not present in database
Track 2 not present in database
Track 3 not present in database
Track 4 not present in database
Track 5 not present in database
Track 6 not present in database
Track 7 not present in database
Track 8 not present in database
Track 9 not present in database
Track 10 not present in database
Track 11 not present in database
Track 12 not present in database
Track 13 not present in database
Track 14 not present in database
Track 15 not present in database
Track 16 not present in database
Track 17 not present in database
Track 18 not present in database
Track 19 not present in database
Track 20 not present in database
Track 21 not present in database
Track 22 not present in database
Track 23 not present in database
Track 24 not present in database

None of the tracks are present in the AccurateRip database

End of status report

==== Log checksum 62FBB8173F1BEF0F31B701D743EC6AF13F20654112324A68DCBB0745A6CA20B7 ====
[_/su_spoiler]

CUETools 2.1.5

[CUETools log; Date: 30.03.2014 9:47:11; Version: 2.1.5]
[CTDB TOCID: A6lsjcBqhPRHzKGls2R1KClKYGg-] found.
Track | CTDB Status
1 | (24/24) Accurately ripped
2 | (24/24) Accurately ripped
3 | (24/24) Accurately ripped
4 | (24/24) Accurately ripped
5 | (24/24) Accurately ripped
6 | (24/24) Accurately ripped
7 | (24/24) Accurately ripped
8 | (24/24) Accurately ripped
9 | (24/24) Accurately ripped
10 | (24/24) Accurately ripped
11 | (24/24) Accurately ripped
12 | (24/24) Accurately ripped
13 | (24/24) Accurately ripped
14 | (24/24) Accurately ripped
15 | (24/24) Accurately ripped
16 | (24/24) Accurately ripped
17 | (24/24) Accurately ripped
18 | (24/24) Accurately ripped
19 | (24/24) Accurately ripped
20 | (24/24) Accurately ripped
21 | (24/24) Accurately ripped
22 | (24/24) Accurately ripped
23 | (24/24) Accurately ripped
24 | (24/24) Accurately ripped
[AccurateRip ID: 002f98ee-033574d2-560cce18] found.
Track [ CRC | V2 ] Status
01 [002da397|e108bd81] (00+24/24) Accurately ripped
02 [f0336a9e|6afde682] (00+24/24) Accurately ripped
03 [7ab7e016|49185db1] (00+24/24) Accurately ripped
04 [684cc1ec|1a85cbbd] (00+24/24) Accurately ripped
05 [2d055a90|cbce8568] (00+24/24) Accurately ripped
06 [16a1e754|fa94e56a] (00+24/24) Accurately ripped
07 [f9d59ff6|7758c49a] (00+24/24) Accurately ripped
08 [3c480906|234653f0] (00+24/24) Accurately ripped
09 [5f39509a|b6a50c44] (00+24/24) Accurately ripped
10 [40936c5f|b4ce9490] (00+24/24) Accurately ripped
11 [48c5e185|036b8039] (00+24/24) Accurately ripped
12 [ec9ce3db|f9241464] (00+24/24) Accurately ripped
13 [ffc52f0b|e9b429c1] (00+24/24) Accurately ripped
14 [9f6f0a76|a2d4917a] (00+24/24) Accurately ripped
15 [8610a4bd|c03bbb34] (00+24/24) Accurately ripped
16 [2fee8baf|b954f11d] (00+24/24) Accurately ripped
17 [41eae393|c1f640b8] (00+24/24) Accurately ripped
18 [181aadb3|3a7d5823] (00+24/24) Accurately ripped
19 [1c172bba|a455772c] (00+24/24) Accurately ripped
20 [1bc1cb77|6a0d39f8] (00+24/24) Accurately ripped
21 [10b0736c|eb2d8b6f] (00+24/24) Accurately ripped
22 [59c50fe5|4e909f3d] (00+24/24) Accurately ripped
23 [cfe9fb85|69475cc3] (00+24/24) Accurately ripped
24 [123d0cfa|a91378a3] (00+24/24) Accurately ripped

Track Peak [ CRC32 ] [W/O NULL] [ LOG ]
-- 97,5 [351AF4BC] [B4C4648A] CRC32
01 96,6 [873AAF8E] [4EE89B96]
02 96,6 [C8609A3F] [9B005735]
03 96,6 [18E7ED3B] [0B2212DA]
04 97,2 [C3E01657] [8467ED2B]
05 96,6 [13DA29F7] [E820D882]
06 96,6 [FED8DD18] [996307A7]
07 96,6 [DEC58BB9] [A100F17B]
08 96,6 [FCF216D5] [B703CA50]
09 96,6 [E22C8784] [F95F8BE0]
10 97,5 [C3E309BB] [7DB9724F]
11 96,6 [2752C9D2] [23A6CF5F]
12 96,6 [C10D63F5] [839DB81B]
13 96,6 [F1A02B0E] [CF2A8A43]
14 96,6 [84FADF15] [5FAED2E3]
15 96,6 [D800837E] [9E07204E]
16 96,7 [EF42C2CD] [0B97892B]
17 97,3 [10E755D6] [BA504900]
18 96,6 [6A9D1BE6] [CFB5DAD5]
19 96,6 [FAC37B55] [079F9E1C]
20 96,6 [A16A98E0] [6A9ECD5A]
21 96,6 [A74C0E3B] [C59F1E04]
22 96,6 [5ED021BD] [C555A3D1]
23 96,6 [586F8C2E] [FB0AAFA4]
24 96,6 [8BDB358B] [C3BA621A]
[_/su_spoiler]


The Beatles' Second Album (1964)

The Beatles' Second Album (1964)

The Beatles’ Second Album (1964)
EAC Rip | FLAC Image + Cue + Log | Full Scans @600 dpi, JPG
Label: Capitol Records | Cat#: ST 2080 | Genre: Classic Rock

Tracklist:
01. Roll Over Beethoven (Mono) – 02:47
02. Thank You Girl (Mono) – 02:04
03. You Really Got A Hold On Me (Mono) – 03:04
04. Devil In Her Heart (Mono) – 02:28
05. Money (Mono) – 02:50
06. You Can’t Do That (Mono) – 02:39
07. Long Tall Sally (Mono) – 02:06
08. I Call Your Name (Mono) – 02:14
09. Please Mr. Postman (Mono) – 02:37
10. I’ll Get You (Mono) – 02:09
11. She Loves You (Mono) – 02:25
12. Roll Over Beethoven (Stereo) – 02:48
13. Thank You Girl (Stereo) – 02:05
14. You Really Got A Hold On Me (Stereo) – 03:04
15. Devil In Her Heart (Stereo) – 02:29
16. Money (Stereo) – 02:52
17. You Can’t Do That (Stereo) – 02:38
18. Long Tall Sally (Stereo) – 02:05
19. I Call Your Name (Stereo) – 02:09
20. Please Mr. Postman (Stereo) – 02:36
21. I’ll Get You (Stereo) – 02:08
22. She Loves You (Mono) – 02:22

EAC Log

Exact Audio Copy V1.0 beta 3 from 29. August 2011

EAC extraction logfile from 31. January 2014, 22:07

The Beatles / The Beatles' Second Album

Used drive : ATAPI iHAS124 B Adapter: 2 ID: 0

Read mode : Secure
Utilize accurate stream : Yes
Defeat audio cache : Yes
Make use of C2 pointers : No

Read offset correction : 6
Overread into Lead-In and Lead-Out : No
Fill up missing offset samples with silence : Yes
Delete leading and trailing silent blocks : No
Null samples used in CRC calculations : Yes
Used interface : Native Win32 interface for Win NT & 2000

Used output format : User Defined Encoder
Selected bitrate : 1024 kBit/s
Quality : High
Add ID3 tag : No
Command line compressor : C:\Program Files (x86)\Exact Audio Copy\FLAC\FLAC.EXE
Additional command line options : -V -8 -T "Date=%year%" -T "Genre=%genre%" %source%

TOC of the extracted CD

Track | Start | Length | Start sector | End sector
---------------------------------------------------------
1 | 0:00.00 | 2:47.40 | 0 | 12564
2 | 2:47.40 | 2:04.69 | 12565 | 21933
3 | 4:52.34 | 3:04.58 | 21934 | 35791
4 | 7:57.17 | 2:28.52 | 35792 | 46943
5 | 10:25.69 | 2:50.17 | 46944 | 59710
6 | 13:16.11 | 2:39.31 | 59711 | 71666
7 | 15:55.42 | 2:06.07 | 71667 | 81123
8 | 18:01.49 | 2:14.27 | 81124 | 91200
9 | 20:16.01 | 2:37.24 | 91201 | 102999
10 | 22:53.25 | 2:09.13 | 103000 | 112687
11 | 25:02.38 | 2:25.35 | 112688 | 123597
12 | 27:27.73 | 2:48.21 | 123598 | 136218
13 | 30:16.19 | 2:05.72 | 136219 | 145665
14 | 32:22.16 | 3:04.24 | 145666 | 159489
15 | 35:26.40 | 2:29.12 | 159490 | 170676
16 | 37:55.52 | 2:52.08 | 170677 | 183584
17 | 40:47.60 | 2:38.00 | 183585 | 195434
18 | 43:25.60 | 2:05.69 | 195435 | 204878
19 | 45:31.54 | 2:09.51 | 204879 | 214604
20 | 47:41.30 | 2:36.24 | 214605 | 226328
21 | 50:17.54 | 2:08.11 | 226329 | 235939
22 | 52:25.65 | 2:21.58 | 235940 | 246572

Range status and errors

Selected range

Filename G:\CD\The Beatles - The Beatles' Second Album.wav

Peak level 94.3 %
Extraction speed 5.9 X
Range quality 100.0 %
Test CRC 8F0D79C8
Copy CRC 8F0D79C8
Copy OK

No errors occurred

AccurateRip summary

Track 1 not present in database
Track 2 not present in database
Track 3 not present in database
Track 4 not present in database
Track 5 not present in database
Track 6 not present in database
Track 7 not present in database
Track 8 not present in database
Track 9 not present in database
Track 10 not present in database
Track 11 not present in database
Track 12 not present in database
Track 13 not present in database
Track 14 not present in database
Track 15 not present in database
Track 16 not present in database
Track 17 not present in database
Track 18 not present in database
Track 19 not present in database
Track 20 not present in database
Track 21 not present in database
Track 22 not present in database

None of the tracks are present in the AccurateRip database

End of status report

==== Log checksum FC801E3BEA0411B28CE706DAE501A26B62AF0E1167D3B556CB8F9C568E88CB99 ====
[_/su_spoiler]

CUETools 2.1.5

[CUETools log; Date: 30.03.2014 9:47:40; Version: 2.1.5]
[CTDB TOCID: .kf2kifvcQyp3vp7PRW61Hcnr9w-] found.
Track | CTDB Status
1 | (20/21) Accurately ripped
2 | (21/21) Accurately ripped
3 | (21/21) Accurately ripped
4 | (21/21) Accurately ripped
5 | (21/21) Accurately ripped
6 | (21/21) Accurately ripped
7 | (21/21) Accurately ripped
8 | (21/21) Accurately ripped
9 | (21/21) Accurately ripped
10 | (21/21) Accurately ripped
11 | (21/21) Accurately ripped
12 | (21/21) Accurately ripped
13 | (21/21) Accurately ripped
14 | (21/21) Accurately ripped
15 | (21/21) Accurately ripped
16 | (21/21) Accurately ripped
17 | (21/21) Accurately ripped
18 | (21/21) Accurately ripped
19 | (21/21) Accurately ripped
20 | (21/21) Accurately ripped
21 | (21/21) Accurately ripped
22 | (21/21) Accurately ripped
[AccurateRip ID: 002bf086-02bcbab6-5b0cd716] found.
Track [ CRC | V2 ] Status
01 [f3b6a8a9|6032e3f5] (00+25/25) Accurately ripped
02 [951103a0|b99dc148] (00+25/25) Accurately ripped
03 [16f1ab10|39af7781] (00+25/25) Accurately ripped
04 [c949dec1|a79bd2bb] (00+25/25) Accurately ripped
05 [58b3281d|c757b799] (00+25/25) Accurately ripped
06 [d9ce1808|00e6dcc0] (00+25/25) Accurately ripped
07 [671056a5|4b73e274] (00+25/25) Accurately ripped
08 [1923690a|e8c221ef] (00+25/25) Accurately ripped
09 [efc4b90e|b59011ae] (00+25/25) Accurately ripped
10 [ed93b039|8aa3eabe] (00+25/25) Accurately ripped
11 [910e7495|27e60c93] (00+25/25) Accurately ripped
12 [c3bb9d89|fc9e53d1] (00+25/25) Accurately ripped
13 [ddbfb86b|a94cfea4] (00+25/25) Accurately ripped
14 [0ecc2a04|b475b348] (00+25/25) Accurately ripped
15 [9ec63028|f8d92fe1] (00+25/25) Accurately ripped
16 [dc853135|ccdeebea] (00+25/25) Accurately ripped
17 [b0c0a396|a4ab9d76] (00+25/25) Accurately ripped
18 [60b0ec01|0cef98e9] (00+25/25) Accurately ripped
19 [e80927ef|d651c142] (00+25/25) Accurately ripped
20 [b966fe6a|f33374f9] (00+25/25) Accurately ripped
21 [0d9ec4c8|16d4349e] (00+25/25) Accurately ripped
22 [02c57d75|90d55207] (00+24/24) Accurately ripped

Track Peak [ CRC32 ] [W/O NULL] [ LOG ]
-- 94,3 [8F0D79C8] [486B0300] CRC32
01 93,3 [7859B705] [D9F429E6]
02 93,3 [6D4A0FD7] [FDB2A757]
03 91,9 [100FD454] [338B8FD9]
04 93,3 [2AE977D4] [A9F15A79]
05 93,3 [F3790214] [B2C10749]
06 93,6 [C9B31431] [9D3615B7]
07 92,3 [C74EBF4B] [10E96502]
08 92,7 [07AF6ED3] [1E152068]
09 93,3 [0CB78DBE] [E4701A2D]
10 93,3 [599B69FD] [3C71041B]
11 93,1 [50140B00] [3ED67C88]
12 93,4 [33782889] [62046054]
13 94,3 [402E2EEF] [A0FE7DD0]
14 93,3 [D0DF312D] [33A3AF26]
15 93,3 [0B2E33C2] [701AAEAD]
16 93,3 [1FB7F2BC] [A134EC0B]
17 93,3 [0D5A5371] [9053AF58]
18 93,3 [2F056BE9] [43D31C99]
19 93,3 [A91D2D20] [B7B6D66E]
20 93,3 [38BEA7C2] [345C7F79]
21 93,3 [DBD00159] [BD0E906B]
22 93,3 [900B517A] [8A04A591]
[_/su_spoiler]


A Hard Day's Night: Original Motion Pictures Soundtrack (1964)

A Hard Day's Night: Original Motion Pictures Soundtrack (1964)

A Hard Day’s Night: Original Motion Pictures Soundtrack (1964)
EAC Rip | FLAC Image + Cue + Log | Full Scans @600 dpi, JPG
Label: Capitol Records | Cat#: UAS 6366 | Genre: Classic Rock

Tracklist:
01. A Hard Day’s Night (Mono) – 02:33
02. Tell Me Why (Mono) – 02:11
03. I Cry Instead (Mono) – 02:08
04. I Should Have Known Better (Instrumental) (Mono) – 02:20
05. I’m Happy Just To Dance With You (Mono) – 01:59
06. And I Love Her (Instrumental) (Mono) – 03:49
07. I Should Have Known Better (Mono) – 02:46
08. If I Fell (Mono) – 02:22
09. And I Love Her (Mono) – 02:34
10. Ringo’s Theme (This Boy) (Instrumental) (Mono) – 03:14
11. Can’t Buy Me Love (Mono) – 02:15
12. A Hard Day’s Night (Instrumental) (Mono) – 02:12
13. A Hard Day’s Night (Stereo) – 02:34
14. Tell Me Why (Stereo) – 02:09
15. I Cry Instead (Stereo) – 02:07
16. I Should Have Known Better (Instrumental) (Stereo) – 02:11
17. I’m Happy Just To Dance With You (Stereo) – 01:58
18. And I Love Her (Instrumental) (Stereo) – 03:46
19. I Should Have Known Better (Stereo) – 02:44
20. If I Fell (Stereo) – 02:20
21. And I Love Her (Stereo) – 02:30
22. Ringo’s Theme (This Boy) (Instrumental) (Stereo) – 03:11
23. Can’t Buy Me Love (Stereo) – 02:13
24. A Hard Day’s Night (Instrumental) (Stereo) – 02:07

EAC Log

Exact Audio Copy V1.0 beta 3 from 29. August 2011

EAC extraction logfile from 31. January 2014, 22:38

The Beatles / A Hard Day's Night

Used drive : ATAPI iHAS124 B Adapter: 2 ID: 0

Read mode : Secure
Utilize accurate stream : Yes
Defeat audio cache : Yes
Make use of C2 pointers : No

Read offset correction : 6
Overread into Lead-In and Lead-Out : No
Fill up missing offset samples with silence : Yes
Delete leading and trailing silent blocks : No
Null samples used in CRC calculations : Yes
Used interface : Native Win32 interface for Win NT & 2000

Used output format : User Defined Encoder
Selected bitrate : 1024 kBit/s
Quality : High
Add ID3 tag : No
Command line compressor : C:\Program Files (x86)\Exact Audio Copy\FLAC\FLAC.EXE
Additional command line options : -V -8 -T "Date=%year%" -T "Genre=%genre%" %source%

TOC of the extracted CD

Track | Start | Length | Start sector | End sector
---------------------------------------------------------
1 | 0:00.00 | 2:33.26 | 0 | 11500
2 | 2:33.26 | 2:11.64 | 11501 | 21389
3 | 4:45.15 | 2:08.31 | 21390 | 31020
4 | 6:53.46 | 2:20.37 | 31021 | 41557
5 | 9:14.08 | 1:59.37 | 41558 | 50519
6 | 11:13.45 | 3:49.16 | 50520 | 67710
7 | 15:02.61 | 2:46.10 | 67711 | 80170
8 | 17:48.71 | 2:22.68 | 80171 | 90888
9 | 20:11.64 | 2:34.08 | 90889 | 102446
10 | 22:45.72 | 3:14.15 | 102447 | 117011
11 | 26:00.12 | 2:15.49 | 117012 | 127185
12 | 28:15.61 | 2:12.39 | 127186 | 137124
13 | 30:28.25 | 2:34.57 | 137125 | 148731
14 | 33:03.07 | 2:09.18 | 148732 | 158424
15 | 35:12.25 | 2:07.35 | 158425 | 167984
16 | 37:19.60 | 2:11.29 | 167985 | 177838
17 | 39:31.14 | 1:58.43 | 177839 | 186731
18 | 41:29.57 | 3:46.64 | 186732 | 203745
19 | 45:16.46 | 2:44.37 | 203746 | 216082
20 | 48:01.08 | 2:20.00 | 216083 | 226582
21 | 50:21.08 | 2:30.73 | 226583 | 237905
22 | 52:52.06 | 3:11.18 | 237906 | 252248
23 | 56:03.24 | 2:13.35 | 252249 | 262258
24 | 58:16.59 | 2:07.13 | 262259 | 271796

Range status and errors

Selected range

Filename G:\CD\The Beatles - A Hard Day's Night.wav

Peak level 96.6 %
Extraction speed 6.1 X
Range quality 100.0 %
Test CRC 50379649
Copy CRC 50379649
Copy OK

No errors occurred

AccurateRip summary

Track 1 not present in database
Track 2 not present in database
Track 3 not present in database
Track 4 not present in database
Track 5 not present in database
Track 6 not present in database
Track 7 not present in database
Track 8 not present in database
Track 9 not present in database
Track 10 not present in database
Track 11 not present in database
Track 12 not present in database
Track 13 not present in database
Track 14 not present in database
Track 15 not present in database
Track 16 not present in database
Track 17 not present in database
Track 18 not present in database
Track 19 not present in database
Track 20 not present in database
Track 21 not present in database
Track 22 not present in database
Track 23 not present in database
Track 24 not present in database

None of the tracks are present in the AccurateRip database

End of status report

==== Log checksum 2C6D317DEFC169B456F7EDAC1BDF429C48C958371715E733B28A288BC6903D9B ====
[_/su_spoiler]

CUETools 2.1.5

[CUETools log; Date: 30.03.2014 9:48:11; Version: 2.1.5]
[CTDB TOCID: c6wmJR6ao.upcKCMCAa07ZHo1os-] found.
Track | CTDB Status
1 | (32/33) Accurately ripped
2 | (33/33) Accurately ripped
3 | (33/33) Accurately ripped
4 | (33/33) Accurately ripped
5 | (33/33) Accurately ripped
6 | (33/33) Accurately ripped
7 | (33/33) Accurately ripped
8 | (33/33) Accurately ripped
9 | (33/33) Accurately ripped
10 | (33/33) Accurately ripped
11 | (33/33) Accurately ripped
12 | (33/33) Accurately ripped
13 | (33/33) Accurately ripped
14 | (33/33) Accurately ripped
15 | (33/33) Accurately ripped
16 | (33/33) Accurately ripped
17 | (33/33) Accurately ripped
18 | (33/33) Accurately ripped
19 | (33/33) Accurately ripped
20 | (33/33) Accurately ripped
21 | (33/33) Accurately ripped
22 | (33/33) Accurately ripped
23 | (33/33) Accurately ripped
24 | (33/33) Accurately ripped
[AccurateRip ID: 0033b5c3-03827a6f-570e2718] found.
Track [ CRC | V2 ] Status
01 [531387a9|1adf5c88] (00+24/24) Accurately ripped
02 [850ae7f4|3d99efd3] (00+24/24) Accurately ripped
03 [eb099422|d5597ee6] (00+24/24) Accurately ripped
04 [4e8baef3|98b0a6ae] (00+24/24) Accurately ripped
05 [013a60b8|b51b22f6] (00+24/24) Accurately ripped
06 [5fceddf7|8a6cd2f8] (00+24/24) Accurately ripped
07 [74be25a3|c8301ee5] (00+24/24) Accurately ripped
08 [3cab5f2d|f2eed82c] (00+24/24) Accurately ripped
09 [a4e317e2|6ec881c9] (00+24/24) Accurately ripped
10 [c5e18a04|51879ddf] (00+24/24) Accurately ripped
11 [987d1769|d5055f02] (00+24/24) Accurately ripped
12 [1bc30a18|429501f0] (00+24/24) Accurately ripped
13 [a840a518|15811a8e] (00+24/24) Accurately ripped
14 [bba82136|01ff8a34] (00+24/24) Accurately ripped
15 [150ced33|0dae4ac4] (00+24/24) Accurately ripped
16 [c9c6ba43|59c35857] (00+24/24) Accurately ripped
17 [ed62bf1f|ed324d83] (00+24/24) Accurately ripped
18 [e861d577|9d409f5f] (00+24/24) Accurately ripped
19 [fbf5cef8|cc1be00a] (00+24/24) Accurately ripped
20 [f1e115ee|bb0ee37c] (00+24/24) Accurately ripped
21 [9c339904|4caf1d43] (00+24/24) Accurately ripped
22 [d4443d7c|14a1d1d2] (00+24/24) Accurately ripped
23 [eee146bf|be16f15d] (00+24/24) Accurately ripped
24 [b493af93|5b30a75d] (00+24/24) Accurately ripped

Track Peak [ CRC32 ] [W/O NULL] [ LOG ]
-- 96,6 [50379649] [02D42C26] CRC32
01 95,5 [2350FB8D] [2ADF6B0D]
02 95,8 [B01BCC65] [235A8053]
03 96,6 [81AA8468] [71183190]
04 95,5 [5F08E789] [4B90BEAF]
05 95,5 [BB97888D] [EE18E043]
06 95,0 [A3F5AD54] [5A13CDF5]
07 95,5 [581F9FA1] [2B8B281B]
08 95,5 [80D8AC30] [052B88F3]
09 81,1 [221737EA] [25156E6C]
10 95,5 [43394D60] [10503950]
11 95,5 [269F522C] [E0D39957]
12 85,1 [432ED7CC] [FD09CA94]
13 95,5 [1313FAC5] [C3B49A4B]
14 95,5 [379AAC32] [9584E6E7]
15 96,6 [4FD5CB90] [1156518D]
16 88,7 [B95B6F54] [AF4ACF4C]
17 95,5 [ADAE1B2D] [066E6057]
18 89,0 [2E321471] [AA611003]
19 95,5 [9F4AA694] [D3C1A650]
20 95,5 [81FAD3D9] [1013143C]
21 95,5 [D0CD051D] [A1288625]
22 94,7 [AFDCE72C] [0101C6EF]
23 95,5 [7E127D5A] [B1E7D6B6]
24 89,9 [B089C1AB] [076E8651]
[_/su_spoiler]


Something New (1964)

Something New (1964)

Something New (1964)
EAC Rip | FLAC Image + Cue + Log | Full Scans @600 dpi, JPG
Label: Capitol Records | Cat#: ST 2108 | Genre: Classic Rock

Tracklist:
01. I’ll Cry Instead (Mono) – 02:08
02. Things We Said Today (Mono) – 02:38
03. Any Time At All (Mono) – 02:13
04. When I Get Home (Mono) – 02:18
05. Slow Down (Mono) – 02:57
06. Matchbox (Mono) – 01:59
07. Tell Me Why (Mono) – 02:09
08. And I Love Her (Mono) – 02:31
09. I’m Happy Just To Dance With You (Mono) – 01:59
10. If I Fell (Mono) – 02:22
11. Komm, Gib Mir Deine Hand (I Want To Hold Your Hand) (Mono) – 02:29
12. I’ll Cry Instead (Stereo) – 01:47
13. Things We Said Today (Stereo) – 02:37
14. Any Time At All (Stereo) – 02:13
15. When I Get Home (Stereo) – 02:18
16. Slow Down (Stereo) – 02:56
17. Matchbox (Stereo) – 01:59
18. Tell Me Why (Stereo) – 02:10
19. And I Love Her (Stereo) – 02:31
20. I’m Happy Just To Dance With You (Stereo) – 01:57
21. If I Fell (Stereo) – 02:22
22. Komm, Gib Mir Deine Hand (I Want To Hold Your Hand) (Stereo) – 02:25

EAC Log

Exact Audio Copy V1.0 beta 3 from 29. August 2011

EAC extraction logfile from 31. January 2014, 23:01

The Beatles / Something New

Used drive : ATAPI iHAS124 B Adapter: 2 ID: 0

Read mode : Secure
Utilize accurate stream : Yes
Defeat audio cache : Yes
Make use of C2 pointers : No

Read offset correction : 6
Overread into Lead-In and Lead-Out : No
Fill up missing offset samples with silence : Yes
Delete leading and trailing silent blocks : No
Null samples used in CRC calculations : Yes
Used interface : Native Win32 interface for Win NT & 2000

Used output format : User Defined Encoder
Selected bitrate : 1024 kBit/s
Quality : High
Add ID3 tag : No
Command line compressor : C:\Program Files (x86)\Exact Audio Copy\FLAC\FLAC.EXE
Additional command line options : -V -8 -T "Date=%year%" -T "Genre=%genre%" %source%

TOC of the extracted CD

Track | Start | Length | Start sector | End sector
---------------------------------------------------------
1 | 0:00.00 | 2:08.56 | 0 | 9655
2 | 2:08.56 | 2:38.51 | 9656 | 21556
3 | 4:47.32 | 2:13.59 | 21557 | 31590
4 | 7:01.16 | 2:18.40 | 31591 | 41980
5 | 9:19.56 | 2:57.63 | 41981 | 55318
6 | 12:17.44 | 1:59.24 | 55319 | 64267
7 | 14:16.68 | 2:09.56 | 64268 | 73998
8 | 16:26.49 | 2:31.28 | 73999 | 85351
9 | 18:58.02 | 1:59.25 | 85352 | 94301
10 | 20:57.27 | 2:22.31 | 94302 | 104982
11 | 23:19.58 | 2:29.66 | 104983 | 116223
12 | 25:49.49 | 1:47.45 | 116224 | 124293
13 | 27:37.19 | 2:37.39 | 124294 | 136107
14 | 30:14.58 | 2:13.16 | 136108 | 146098
15 | 32:27.74 | 2:18.25 | 146099 | 156473
16 | 34:46.24 | 2:56.55 | 156474 | 169728
17 | 37:43.04 | 1:59.19 | 169729 | 178672
18 | 39:42.23 | 2:10.18 | 178673 | 188440
19 | 41:52.41 | 2:31.28 | 188441 | 199793
20 | 44:23.69 | 1:57.19 | 199794 | 208587
21 | 46:21.13 | 2:22.07 | 208588 | 219244
22 | 48:43.20 | 2:25.27 | 219245 | 230146

Range status and errors

Selected range

Filename G:\CD\The Beatles - Something New.wav

Peak level 96.7 %
Extraction speed 5.8 X
Range quality 100.0 %
Test CRC 17B17AB6
Copy CRC 17B17AB6
Copy OK

No errors occurred

AccurateRip summary

Track 1 not present in database
Track 2 not present in database
Track 3 not present in database
Track 4 not present in database
Track 5 not present in database
Track 6 not present in database
Track 7 not present in database
Track 8 not present in database
Track 9 not present in database
Track 10 not present in database
Track 11 not present in database
Track 12 not present in database
Track 13 not present in database
Track 14 not present in database
Track 15 not present in database
Track 16 not present in database
Track 17 not present in database
Track 18 not present in database
Track 19 not present in database
Track 20 not present in database
Track 21 not present in database
Track 22 not present in database

None of the tracks are present in the AccurateRip database

End of status report

==== Log checksum C59F30BBD0679D1C350A9C90F77EBEF532BC9D301355D71C1ED8E2F20707B4FA ====
[_/su_spoiler]

CUETools 2.1.5

[CUETools log; Date: 30.03.2014 9:48:41; Version: 2.1.5]
[CTDB TOCID: n5For8pNJXUn4bvJOeHarY09iKo-] found.
Track | CTDB Status
1 | (23/23) Accurately ripped
2 | (23/23) Accurately ripped
3 | (23/23) Accurately ripped
4 | (23/23) Accurately ripped
5 | (23/23) Accurately ripped
6 | (23/23) Accurately ripped
7 | (23/23) Accurately ripped
8 | (23/23) Accurately ripped
9 | (23/23) Accurately ripped
10 | (23/23) Accurately ripped
11 | (23/23) Accurately ripped
12 | (23/23) Accurately ripped
13 | (23/23) Accurately ripped
14 | (23/23) Accurately ripped
15 | (23/23) Accurately ripped
16 | (23/23) Accurately ripped
17 | (23/23) Accurately ripped
18 | (23/23) Accurately ripped
19 | (23/23) Accurately ripped
20 | (23/23) Accurately ripped
21 | (23/23) Accurately ripped
22 | (23/23) Accurately ripped
[AccurateRip ID: 00288a38-0287acbc-4c0bfc16] found.
Track [ CRC | V2 ] Status
01 [400da475|6710d137] (00+20/20) Accurately ripped
02 [df88e9c4|f191ec86] (00+20/20) Accurately ripped
03 [c74c5167|eafdbe22] (00+20/20) Accurately ripped
04 [331f764f|6863e7fc] (00+20/20) Accurately ripped
05 [8573e1f1|21f92780] (00+20/20) Accurately ripped
06 [630b4fc1|4d3bbac9] (00+20/20) Accurately ripped
07 [8cd21387|f51e9382] (00+20/20) Accurately ripped
08 [39527768|87cd63b5] (00+20/20) Accurately ripped
09 [a38fde01|a975af7b] (00+20/20) Accurately ripped
10 [288b524b|ce0c1199] (00+20/20) Accurately ripped
11 [2e8f4863|40ae4f2e] (00+20/20) Accurately ripped
12 [07b3bc1c|99ca2237] (00+20/20) Accurately ripped
13 [9f37bd47|fcf2d69c] (00+20/20) Accurately ripped
14 [9a3b9c66|cabf59d7] (00+20/20) Accurately ripped
15 [f713e8d8|3ec75fc1] (00+20/20) Accurately ripped
16 [cd495e36|a249db1c] (00+20/20) Accurately ripped
17 [570879c0|2b76a47d] (00+20/20) Accurately ripped
18 [a616c880|aff41945] (00+20/20) Accurately ripped
19 [5c866f05|bc68140a] (00+20/20) Accurately ripped
20 [c5caff4b|60cace41] (00+20/20) Accurately ripped
21 [a298cc96|315a5e59] (00+20/20) Accurately ripped
22 [e9583cb9|14960046] (00+20/20) Accurately ripped

Track Peak [ CRC32 ] [W/O NULL] [ LOG ]
-- 96,7 [17B17AB6] [1BA04B1C] CRC32
01 91,7 [83BF390F] [CCAB39EB]
02 96,7 [AD0CF4B5] [62482203]
03 96,6 [424A9D44] [7AE0A155]
04 95,5 [50EB0F96] [C59B3649]
05 96,6 [205C717A] [35C9324D]
06 96,6 [3A56CB16] [40C6DE94]
07 96,6 [AE157B37] [F8793F89]
08 80,9 [A6B4A803] [EC0ABA1A]
09 96,6 [1DD3135F] [5566C7F8]
10 95,5 [AB5F4B3D] [0D0EFB8D]
11 94,0 [196BC1B2] [7A78585A]
12 96,6 [56915074] [8A8BE3CF]
13 96,6 [B5FF2927] [7729E860]
14 96,6 [29175896] [2B3C7375]
15 96,6 [C8B3978A] [E57E9995]
16 96,6 [0EA1FC70] [A22B29B1]
17 96,6 [3E6A9D62] [233061FF]
18 96,6 [D90B5C86] [5D792390]
19 94,9 [AA656F53] [52285A00]
20 96,6 [6AE5A96F] [3FC7B6A4]
21 96,6 [70B0E7BC] [26F5ABFC]
22 96,6 [4BC53A45] [2C66D15A]
[_/su_spoiler]


The Beatles Story (1964)

The Beatles Story (1964)

The Beatles Story (1964)
EAC Rip | FLAC Image + Cue + Log | Full Scans @600 dpi, JPG
Label: Capitol Records | Cat#: STBO 2222 | Genre: Classic Rock

Tracklist:
01. On Stage With The Beatles (Stereo) – 01:02
02. How Beatlemania Began (Stereo) – 01:18
03. Beatlemania In Action (Stereo) – 01:24
04. Man Behind The Beatles-Brian Epstein (Stereo) – 02:45
05. John Lennon (Stereo) – 05:46
06. Who’s A Millionaire (Stereo) – 00:37
07. Beatles Will Be Beatles (Stereo) – 07:32
08. Man Behind The Music-George Martin (Stereo) – 00:53
09. George Harrison (Stereo) – 04:42
10. A Hard Day’s Night-Their First Movie (Stereo) – 03:06
11. Paul McCartney (Stereo) – 02:42
12. Sneaky Haircuts And More About Paul (Stereo) – 03:26
13. The Beatles Look At Life (Stereo) – 02:04
14. ‘Victims’ Of Beatlemania (Stereo) – 01:08
15. Beatle Medley (Stereo) – 03:57
16. Ringo Starr (Stereo) – 06:20
17. Liverpool And All The World! (Stereo) – 01:07

EAC Log

Exact Audio Copy V1.0 beta 3 from 29. August 2011

EAC extraction logfile from 31. January 2014, 23:22

The Beatles / The Beatles Story

Used drive : ATAPI iHAS124 B Adapter: 2 ID: 0

Read mode : Secure
Utilize accurate stream : Yes
Defeat audio cache : Yes
Make use of C2 pointers : No

Read offset correction : 6
Overread into Lead-In and Lead-Out : No
Fill up missing offset samples with silence : Yes
Delete leading and trailing silent blocks : No
Null samples used in CRC calculations : Yes
Used interface : Native Win32 interface for Win NT & 2000

Used output format : User Defined Encoder
Selected bitrate : 1024 kBit/s
Quality : High
Add ID3 tag : No
Command line compressor : C:\Program Files (x86)\Exact Audio Copy\FLAC\FLAC.EXE
Additional command line options : -V -8 -T "Date=%year%" -T "Genre=%genre%" %source%

TOC of the extracted CD

Track | Start | Length | Start sector | End sector
---------------------------------------------------------
1 | 0:00.00 | 1:02.65 | 0 | 4714
2 | 1:02.65 | 1:18.54 | 4715 | 10618
3 | 2:21.44 | 1:24.29 | 10619 | 16947
4 | 3:45.73 | 2:45.25 | 16948 | 29347
5 | 6:31.23 | 5:46.04 | 29348 | 55301
6 | 12:17.27 | 0:37.05 | 55302 | 58081
7 | 12:54.32 | 7:32.38 | 58082 | 92019
8 | 20:26.70 | 0:53.22 | 92020 | 96016
9 | 21:20.17 | 4:42.18 | 96017 | 117184
10 | 26:02.35 | 3:06.30 | 117185 | 131164
11 | 29:08.65 | 2:42.23 | 131165 | 143337
12 | 31:51.13 | 3:26.07 | 143338 | 158794
13 | 35:17.20 | 2:04.38 | 158795 | 168132
14 | 37:21.58 | 1:08.26 | 168133 | 173258
15 | 38:30.09 | 3:57.09 | 173259 | 191042
16 | 42:27.18 | 6:20.39 | 191043 | 219581
17 | 48:47.57 | 1:07.44 | 219582 | 224650

Range status and errors

Selected range

Filename G:\CD\The Beatles - The Beatles Story.wav

Peak level 100.0 %
Extraction speed 5.7 X
Range quality 100.0 %
Test CRC 172AC6E7
Copy CRC 172AC6E7
Copy OK

No errors occurred

AccurateRip summary

Track 1 not present in database
Track 2 not present in database
Track 3 not present in database
Track 4 not present in database
Track 5 not present in database
Track 6 not present in database
Track 7 not present in database
Track 8 not present in database
Track 9 not present in database
Track 10 not present in database
Track 11 not present in database
Track 12 not present in database
Track 13 not present in database
Track 14 not present in database
Track 15 not present in database
Track 16 not present in database
Track 17 not present in database

None of the tracks are present in the AccurateRip database

End of status report

==== Log checksum 824672F0EE56834952F61A170CB82B8691F2C859F2FFC9DF194841E1BCDA9CEE ====
[_/su_spoiler]

CUETools 2.1.5

[CUETools log; Date: 30.03.2014 9:49:08; Version: 2.1.5]
[CTDB TOCID: wBc9xPlq._jLhc_OGO.BtirQlI4-] found.
Track | CTDB Status
1 | (22/22) Accurately ripped
2 | (22/22) Accurately ripped
3 | (22/22) Accurately ripped
4 | (22/22) Accurately ripped
5 | (22/22) Accurately ripped
6 | (22/22) Accurately ripped
7 | (22/22) Accurately ripped
8 | (22/22) Accurately ripped
9 | (22/22) Accurately ripped
10 | (22/22) Accurately ripped
11 | (22/22) Accurately ripped
12 | (22/22) Accurately ripped
13 | (22/22) Accurately ripped
14 | (22/22) Accurately ripped
15 | (22/22) Accurately ripped
16 | (22/22) Accurately ripped
17 | (22/22) Accurately ripped
[AccurateRip ID: 001cd79a-017a1b66-e40bb311] found.
Track [ CRC | V2 ] Status
01 [1059d488|980c0c84] (00+20/20) Accurately ripped
02 [ddd46c71|f69bcd31] (00+20/20) Accurately ripped
03 [f296bd4a|e63b5d9e] (00+20/20) Accurately ripped
04 [091eaa48|7378c0fd] (00+19/19) Accurately ripped
05 [3435c4cb|a4f7f1e0] (00+20/20) Accurately ripped
06 [01447dd6|e0ce970f] (00+20/20) Accurately ripped
07 [f92b0c1f|64a19bfb] (00+20/20) Accurately ripped
08 [36ef8484|243415f7] (00+20/20) Accurately ripped
09 [d7ca5b02|a7e0adf6] (00+20/20) Accurately ripped
10 [475000d4|1b3e692d] (00+20/20) Accurately ripped
11 [bc2afea7|d9590c85] (00+20/20) Accurately ripped
12 [0a10a958|afb4ce32] (00+20/20) Accurately ripped
13 [6df516cf|276f9347] (00+20/20) Accurately ripped
14 [82f98428|7c3324cb] (00+20/20) Accurately ripped
15 [37ddedcc|0c227977] (00+20/20) Accurately ripped
16 [e04cb833|24a222d0] (00+20/20) Accurately ripped
17 [5a7bcea4|65a879da] (00+20/20) Accurately ripped

Track Peak [ CRC32 ] [W/O NULL] [ LOG ]
-- 100,0 [172AC6E7] [F6BAFAC2] CRC32
01 92,2 [432F47B9] [65724A91]
02 91,3 [12973D29] [DF7DB318]
03 78,2 [A633D370] [B60F0F75]
04 100,0 [008A4FA3] [D9220E7F]
05 100,0 [EF0A75E4] [A784C792]
06 100,0 [20337E86] [393123FC]
07 100,0 [63E3AE90] [71329E34]
08 78,2 [C8006641] [08EA3E03]
09 100,0 [D093A260] [853FD67C]
10 100,0 [690CD7D1] [C109B7CB]
11 100,0 [C874E96E] [5E913BDB]
12 100,0 [E82EFBEC] [A9902C2A]
13 100,0 [898FFD15] [08B69901]
14 100,0 [96CC122F] [07B31ACB]
15 83,8 [F3492F64] [7F8992DB]
16 100,0 [36E08999] [BBB0CC3D]
17 100,0 [B9D05ABD] [38A1B2CE]
[_/su_spoiler]

Beatles '65 (1964)

Beatles '65 (1964)

Beatles ’65 (1964)
EAC Rip | FLAC Image + Cue + Log | Full Scans @600 dpi, JPG
Label: Capitol Records | Cat#: ST 2228 | Genre: Classic Rock

Tracklist:
01. No Reply (Mono) – 02:17
02. I’m A Loser (Mono) – 02:33
03. Baby’s In Black (Mono) – 02:08
04. Rock And Roll Music (Mono) – 02:34
05. I’ll Follow The Sun (Mono) – 01:50
06. Mr. Moonlight (Mono) – 02:36
07. Honey Don’t (Mono) – 02:59
08. I’ll Be Back (Mono) – 02:24
09. She’s A Woman (Mono) – 03:00
10. I Feel Fine (Mono) – 02:22
11. Everybody’s Trying To Be My Baby (Mono) – 02:30
12. No Reply (Stereo) – 02:17
13. I’m A Loser (Stereo) – 02:31
14. Baby’s In Black (Stereo) – 02:07
15. Rock And Roll Music (Stereo) – 02:32
16. I’ll Follow The Sun (Stereo) – 01:50
17. Mr. Moonlight (Stereo) – 02:39
18. Honey Don’t (Stereo) – 03:00
19. I’ll Be Back (Stereo) – 02:24
20. She’s A Woman (Stereo) – 03:05
21. I Feel Fine (Stereo) – 02:21
22. Everybody’s Trying To Be My Baby (Stereo) – 02:24

EAC Log

Exact Audio Copy V1.0 beta 3 from 29. August 2011

EAC extraction logfile from 31. January 2014, 23:53

The Beatles / Beatles '65

Used drive : ATAPI iHAS124 B Adapter: 2 ID: 0

Read mode : Secure
Utilize accurate stream : Yes
Defeat audio cache : Yes
Make use of C2 pointers : No

Read offset correction : 6
Overread into Lead-In and Lead-Out : No
Fill up missing offset samples with silence : Yes
Delete leading and trailing silent blocks : No
Null samples used in CRC calculations : Yes
Used interface : Native Win32 interface for Win NT & 2000

Used output format : User Defined Encoder
Selected bitrate : 1024 kBit/s
Quality : High
Add ID3 tag : No
Command line compressor : C:\Program Files (x86)\Exact Audio Copy\FLAC\FLAC.EXE
Additional command line options : -V -8 -T "Date=%year%" -T "Genre=%genre%" %source%

TOC of the extracted CD

Track | Start | Length | Start sector | End sector
---------------------------------------------------------
1 | 0:00.00 | 2:17.54 | 0 | 10328
2 | 2:17.54 | 2:33.34 | 10329 | 21837
3 | 4:51.13 | 2:08.03 | 21838 | 31440
4 | 6:59.16 | 2:34.16 | 31441 | 43006
5 | 9:33.32 | 1:50.66 | 43007 | 51322
6 | 11:24.23 | 2:36.55 | 51323 | 63077
7 | 14:01.03 | 2:59.44 | 63078 | 76546
8 | 17:00.47 | 2:24.45 | 76547 | 87391
9 | 19:25.17 | 3:00.55 | 87392 | 100946
10 | 22:25.72 | 2:22.66 | 100947 | 111662
11 | 24:48.63 | 2:30.18 | 111663 | 122930
12 | 27:19.06 | 2:17.47 | 122931 | 133252
13 | 29:36.53 | 2:31.51 | 133253 | 144628
14 | 32:08.29 | 2:07.36 | 144629 | 154189
15 | 34:15.65 | 2:32.71 | 154190 | 165660
16 | 36:48.61 | 1:50.47 | 165661 | 173957
17 | 38:39.33 | 2:39.39 | 173958 | 185921
18 | 41:18.72 | 3:00.01 | 185922 | 199422
19 | 44:18.73 | 2:24.04 | 199423 | 210226
20 | 46:43.02 | 3:05.13 | 210227 | 224114
21 | 49:48.15 | 2:21.61 | 224115 | 234750
22 | 52:10.01 | 2:25.24 | 234751 | 245649

Range status and errors

Selected range

Filename G:\CD\The Beatles - Beatles '65.wav

Peak level 98.6 %
Extraction speed 5.7 X
Range quality 100.0 %
Test CRC 22E261C5
Copy CRC 22E261C5
Copy OK

No errors occurred

AccurateRip summary

Track 1 not present in database
Track 2 not present in database
Track 3 not present in database
Track 4 not present in database
Track 5 not present in database
Track 6 not present in database
Track 7 not present in database
Track 8 not present in database
Track 9 not present in database
Track 10 not present in database
Track 11 not present in database
Track 12 not present in database
Track 13 not present in database
Track 14 not present in database
Track 15 not present in database
Track 16 not present in database
Track 17 not present in database
Track 18 not present in database
Track 19 not present in database
Track 20 not present in database
Track 21 not present in database
Track 22 not present in database

None of the tracks are present in the AccurateRip database

End of status report

==== Log checksum B63BD9A97ECADCA9D56C44398A6337E3A65C149F935732660729811BFD5F8D63 ====
[_/su_spoiler]

CUETools 2.1.5

[CUETools log; Date: 30.03.2014 9:50:20; Version: 2.1.5]
[CTDB TOCID: fpZ4JP.efmnjhWYZOtG.YmyFU0A-] found.
Track | CTDB Status
1 | (22/22) Accurately ripped
2 | (22/22) Accurately ripped
3 | (22/22) Accurately ripped
4 | (22/22) Accurately ripped
5 | (22/22) Accurately ripped
6 | (22/22) Accurately ripped
7 | (22/22) Accurately ripped
8 | (22/22) Accurately ripped
9 | (22/22) Accurately ripped
10 | (22/22) Accurately ripped
11 | (22/22) Accurately ripped
12 | (22/22) Accurately ripped
13 | (22/22) Accurately ripped
14 | (22/22) Accurately ripped
15 | (22/22) Accurately ripped
16 | (22/22) Accurately ripped
17 | (22/22) Accurately ripped
18 | (22/22) Accurately ripped
19 | (22/22) Accurately ripped
20 | (22/22) Accurately ripped
21 | (22/22) Accurately ripped
22 | (22/22) Accurately ripped
[AccurateRip ID: 002a9b53-02ac021a-1d0ccb16] found.
Track [ CRC | V2 ] Status
01 [55e49e78|46419d9a] (00+20/20) Accurately ripped
02 [15d978a5|bf4b7984] (00+20/20) Accurately ripped
03 [ced36a86|b2e28dca] (00+20/20) Accurately ripped
04 [87cb0948|dcc8e1ed] (00+20/20) Accurately ripped
05 [291b73a1|ff4a2370] (00+20/20) Accurately ripped
06 [8ddc4a8d|f0f72ebf] (00+20/20) Accurately ripped
07 [eacf601a|fac24506] (00+20/20) Accurately ripped
08 [a848cedd|b41e3c62] (00+20/20) Accurately ripped
09 [53768e77|56a11e36] (00+20/20) Accurately ripped
10 [6d4e296a|9b136644] (00+20/20) Accurately ripped
11 [acf33bd2|8f23f26e] (00+20/20) Accurately ripped
12 [ec3b3fee|182af6ff] (00+20/20) Accurately ripped
13 [ba299b2e|096f8ac5] (00+20/20) Accurately ripped
14 [aad8805b|1caf9092] (00+20/20) Accurately ripped
15 [900f440b|0f5f0dc3] (00+20/20) Accurately ripped
16 [034fe175|4d81e075] (00+20/20) Accurately ripped
17 [31456212|ec6f1c35] (00+20/20) Accurately ripped
18 [a14c2ebe|43c1a19e] (00+20/20) Accurately ripped
19 [44966608|0ea6da80] (00+20/20) Accurately ripped
20 [52ffbc71|9ad0c4ec] (00+20/20) Accurately ripped
21 [317dceca|a7d83093] (00+20/20) Accurately ripped
22 [9900e9ce|daefcd2b] (00+20/20) Accurately ripped

Track Peak [ CRC32 ] [W/O NULL] [ LOG ]
-- 98,6 [22E261C5] [20CF4071] CRC32
01 95,6 [B0200221] [4D57EBDD]
02 95,5 [EBFD5831] [F36EDEE8]
03 95,5 [11D55C0C] [F197DCB5]
04 96,5 [961ACECD] [EDEA0387]
05 95,5 [FE04D431] [58A007EA]
06 95,7 [77773CCF] [76D36752]
07 96,6 [065A7F29] [A335B4C3]
08 95,5 [6F74C635] [98A05475]
09 95,5 [8B5560BD] [28E2A4F4]
10 96,9 [D87428CE] [573AD11B]
11 95,5 [58A2E49D] [3F58717A]
12 95,6 [6BB6325B] [57EB268E]
13 95,7 [8AF8A7A6] [3E3FCDF4]
14 98,6 [E5071757] [13A25037]
15 97,3 [4ED25DEC] [1F6E5440]
16 95,5 [902D2CF6] [B6A1D8BD]
17 95,5 [101F05E2] [87034D39]
18 95,5 [FD88F760] [1756816E]
19 97,0 [7821D566] [30C206C0]
20 96,6 [B8CF4640] [61E4737C]
21 96,0 [2B28D8CD] [9B7310E1]
22 97,9 [D57B7424] [57BA75A0]
[_/su_spoiler]


The Early Beatles (1965)

The Early Beatles (1965)

The Early Beatles (1965)
EAC Rip | FLAC Image + Cue + Log | Full Scans @600 dpi, JPG
Label: Capitol Records | Cat#: ST 2309 | Genre: Classic Rock

Tracklist:
01. Love Me Do (Mono) – 02:22
02. Twist And Shout (Mono) – 02:36
03. Anna (Go To Him) (Mono) – 02:57
04. Chains (Mono) – 02:26
05. Boys (Mono) – 02:27
06. Ask Me Why (Mono) – 02:27
07. Please Please Me (Mono) – 02:03
08. P.S. I Love You (Mono) – 02:05
09. Baby It’s You (Mono) – 02:41
10. A Taste Of Honey (Mono) – 02:05
11. Do You Want To Know A Secret (Mono) – 02:00
12. Love Me Do (Stereo) – 02:21
13. Twist And Shout (Stereo) – 02:36
14. Anna (Go To Him) (Stereo) – 02:57
15. Chains (Stereo) – 02:26
16. Boys (Stereo) – 02:27
17. Ask Me Why (Stereo) – 02:27
18. Please Please Me (Stereo) – 02:02
19. P.S. I Love You (Stereo) – 02:04
20. Baby It’s You (Stereo) – 02:41
21. A Taste Of Honey (Stereo) – 02:05
22. Do You Want To Know A Secret (Stereo) – 01:57

EAC Log

Exact Audio Copy V1.0 beta 3 from 29. August 2011

EAC extraction logfile from 1. February 2014, 0:15

The Beatles / The Early Beatles

Used drive : ATAPI iHAS124 B Adapter: 2 ID: 0

Read mode : Secure
Utilize accurate stream : Yes
Defeat audio cache : Yes
Make use of C2 pointers : No

Read offset correction : 6
Overread into Lead-In and Lead-Out : No
Fill up missing offset samples with silence : Yes
Delete leading and trailing silent blocks : No
Null samples used in CRC calculations : Yes
Used interface : Native Win32 interface for Win NT & 2000

Used output format : User Defined Encoder
Selected bitrate : 1024 kBit/s
Quality : High
Add ID3 tag : No
Command line compressor : C:\Program Files (x86)\Exact Audio Copy\FLAC\FLAC.EXE
Additional command line options : -V -8 -T "Date=%year%" -T "Genre=%genre%" %source%

TOC of the extracted CD

Track | Start | Length | Start sector | End sector
---------------------------------------------------------
1 | 0:00.00 | 2:22.16 | 0 | 10665
2 | 2:22.16 | 2:36.12 | 10666 | 22377
3 | 4:58.28 | 2:57.70 | 22378 | 35722
4 | 7:56.23 | 2:26.36 | 35723 | 46708
5 | 10:22.59 | 2:27.26 | 46709 | 57759
6 | 12:50.10 | 2:27.52 | 57760 | 68836
7 | 15:17.62 | 2:03.49 | 68837 | 78110
8 | 17:21.36 | 2:05.06 | 78111 | 87491
9 | 19:26.42 | 2:41.42 | 87492 | 99608
10 | 22:08.09 | 2:05.54 | 99609 | 109037
11 | 24:13.63 | 2:00.63 | 109038 | 118100
12 | 26:14.51 | 2:21.66 | 118101 | 128741
13 | 28:36.42 | 2:36.17 | 128742 | 140458
14 | 31:12.59 | 2:57.55 | 140459 | 153788
15 | 34:10.39 | 2:26.35 | 153789 | 164773
16 | 36:36.74 | 2:27.16 | 164774 | 175814
17 | 39:04.15 | 2:27.51 | 175815 | 186890
18 | 41:31.66 | 2:02.17 | 186891 | 196057
19 | 43:34.08 | 2:04.68 | 196058 | 205425
20 | 45:39.01 | 2:41.45 | 205426 | 217545
21 | 48:20.46 | 2:05.15 | 217546 | 226935
22 | 50:25.61 | 1:57.07 | 226936 | 235717

Range status and errors

Selected range

Filename G:\CD\The Beatles - The Early Beatles.wav

Peak level 97.4 %
Extraction speed 5.6 X
Range quality 100.0 %
Test CRC 13B57CB8
Copy CRC 13B57CB8
Copy OK

No errors occurred

AccurateRip summary

Track 1 not present in database
Track 2 not present in database
Track 3 not present in database
Track 4 not present in database
Track 5 not present in database
Track 6 not present in database
Track 7 not present in database
Track 8 not present in database
Track 9 not present in database
Track 10 not present in database
Track 11 not present in database
Track 12 not present in database
Track 13 not present in database
Track 14 not present in database
Track 15 not present in database
Track 16 not present in database
Track 17 not present in database
Track 18 not present in database
Track 19 not present in database
Track 20 not present in database
Track 21 not present in database
Track 22 not present in database

None of the tracks are present in the AccurateRip database

End of status report

==== Log checksum 92EDB0A5018B9AC184E9BD6027FB41E90B9D5B753690BE50A259F726939CF0A9 ====
[_/su_spoiler]

CUETools 2.1.5

[CUETools log; Date: 3/23/2015 5:38:45 PM; Version: 2.1.5]
[CTDB TOCID: uocjBIOL5Ak4v2Tp3mwzoMbcV9U-] found.
Track | CTDB Status
1 | (33/34) Accurately ripped
2 | (34/34) Accurately ripped
3 | (34/34) Accurately ripped
4 | (34/34) Accurately ripped
5 | (34/34) Accurately ripped
6 | (34/34) Accurately ripped
7 | (34/34) Accurately ripped
8 | (34/34) Accurately ripped
9 | (34/34) Accurately ripped
10 | (34/34) Accurately ripped
11 | (34/34) Accurately ripped
12 | (34/34) Accurately ripped
13 | (34/34) Accurately ripped
14 | (34/34) Accurately ripped
15 | (34/34) Accurately ripped
16 | (34/34) Accurately ripped
17 | (34/34) Accurately ripped
18 | (34/34) Accurately ripped
19 | (34/34) Accurately ripped
20 | (34/34) Accurately ripped
21 | (34/34) Accurately ripped
22 | (34/34) Accurately ripped
[AccurateRip ID: 002a36f2-02a07751-2b0c4616] found.
Track [ CRC | V2 ] Status
01 [b4f69ae1|2012bc79] (07+56/63) Accurately ripped
02 [c7d28ad0|7cbbce34] (07+57/64) Accurately ripped
03 [64e9d5ed|d7286d26] (07+56/63) Accurately ripped
04 [10dee997|bfdc831e] (07+56/63) Accurately ripped
05 [9e96b08c|a02a0f46] (07+57/64) Accurately ripped
06 [3a33edf4|1002418c] (07+56/63) Accurately ripped
07 [118256ff|4be20901] (07+56/63) Accurately ripped
08 [c7d79383|89d80600] (07+56/63) Accurately ripped
09 [655bbd9c|03fe6818] (07+56/63) Accurately ripped
10 [32549bc3|b6f58653] (07+56/63) Accurately ripped
11 [98e9ff86|83751644] (07+56/63) Accurately ripped
12 [b5e521fa|6179c0a1] (07+56/63) Accurately ripped
13 [ede8ecdf|037de13b] (07+56/63) Accurately ripped
14 [98f4772d|628cc79c] (07+56/63) Accurately ripped
15 [f341c908|1d114c95] (07+56/63) Accurately ripped
16 [5326073b|0b3b63e2] (07+56/63) Accurately ripped
17 [feeeb7b5|cce00aec] (07+56/63) Accurately ripped
18 [ce32ebc2|8c206a63] (07+56/63) Accurately ripped
19 [53f68f22|512c388e] (07+57/64) Accurately ripped
20 [814110f4|86bb6f26] (07+56/63) Accurately ripped
21 [ac8b6c81|62db81c9] (07+56/63) Accurately ripped
22 [78894540|719dc249] (07+56/63) Accurately ripped

Track Peak [ CRC32 ] [W/O NULL] [ LOG ]
-- 97.4 [13B57CB8] [5826BE20] CRC32
01 96.6 [53F71340] [97B9C088]
02 96.6 [61D2FA2F] [5DFCB4A5]
03 96.6 [707A6F03] [17A8EABB]
04 96.6 [0497DCDD] [BD1B383E]
05 96.6 [1C825D9C] [AE49747D]
06 96.6 [8B5C5831] [9A267FD8]
07 96.6 [151D6787] [FC6C9CC5]
08 96.6 [83B15DB6] [236F6994]
09 96.6 [840E2C99] [D64B59FC]
10 96.6 [7FF0F7BC] [7CBFC100]
11 96.6 [6B12BC0E] [2EDE2F59]
12 96.6 [40B51F4A] [9A61D356]
13 96.6 [85096A8F] [F087205C]
14 96.6 [FFE244E6] [80D40B35]
15 96.6 [02C016F7] [05F36778]
16 96.6 [DED96780] [C24CFEDB]
17 97.4 [EB3D2724] [F003CBAE]
18 96.6 [CE8C29EB] [8A44D09A]
19 95.1 [7ADDFA43] [0D6A78B0]
20 96.6 [91FFA42D] [28975C57]
21 96.6 [138AA7A5] [67B39EB4]
22 96.6 [9185A674] [F88744E7]
[_/su_spoiler]


Beatles VI (1965)

Beatles VI (1965)

Beatles VI (1965)
EAC Rip | FLAC Image + Cue + Log | Full Scans @600 dpi, JPG
Label: Capitol Records | Cat#: ST 2358 | Genre: Classic Rock

Tracklist:
01. Kansas City – Hey-Hey-Hey-Hey! (Mono) – 02:34
02. Eight Days A Week (Mono) – 02:46
03. You Like Me Too Much (Mono) – 02:37
04. Bad Boy (Mono) – 02:20
05. I Don’t Want To Spoil The Party (Mono) – 02:37
06. Words Of Love (Mono) – 02:14
07. What You’re Doing (Mono) – 02:35
08. Yes It Is (Mono) – 02:43
09. Dizzy Miss Lizzie (Mono) – 02:55
10. Tell Me What You See (Mono) – 02:38
11. Every Little Thing (Mono) – 02:07
12. Kansas City – Hey-Hey-Hey-Hey! (Stereo) – 02:39
13. Eight Days A Week (Stereo) – 02:45
14. You Like Me Too Much (Stereo) – 02:38
15. Bad Boy (Stereo) – 02:21
16. I Don’t Want To Spoil The Party (Stereo) – 02:35
17. Words Of Love (Stereo) – 02:05
18. What You’re Doing (Stereo) – 02:32
19. Yes It Is (Stereo) – 02:43
20. Dizzy Miss Lizzie (Stereo) – 02:55
21. Tell Me What You See (Stereo) – 02:39
22. Every Little Thing (Stereo) – 02:03

EAC Log

Exact Audio Copy V1.0 beta 3 from 29. August 2011

EAC extraction logfile from 1. February 2014, 0:38

The Beatles / Beatles VI

Used drive : ATAPI iHAS124 B Adapter: 2 ID: 0

Read mode : Secure
Utilize accurate stream : Yes
Defeat audio cache : Yes
Make use of C2 pointers : No

Read offset correction : 6
Overread into Lead-In and Lead-Out : No
Fill up missing offset samples with silence : Yes
Delete leading and trailing silent blocks : No
Null samples used in CRC calculations : Yes
Used interface : Native Win32 interface for Win NT & 2000

Used output format : User Defined Encoder
Selected bitrate : 1024 kBit/s
Quality : High
Add ID3 tag : No
Command line compressor : C:\Program Files (x86)\Exact Audio Copy\FLAC\FLAC.EXE
Additional command line options : -V -8 -T "Date=%year%" -T "Genre=%genre%" %source%

TOC of the extracted CD

Track | Start | Length | Start sector | End sector
---------------------------------------------------------
1 | 0:00.00 | 2:34.52 | 0 | 11601
2 | 2:34.52 | 2:46.59 | 11602 | 24110
3 | 5:21.36 | 2:37.69 | 24111 | 35954
4 | 7:59.30 | 2:20.67 | 35955 | 46521
5 | 10:20.22 | 2:37.09 | 46522 | 58305
6 | 12:57.31 | 2:14.05 | 58306 | 68360
7 | 15:11.36 | 2:35.12 | 68361 | 79997
8 | 17:46.48 | 2:43.12 | 79998 | 92234
9 | 20:29.60 | 2:55.50 | 92235 | 105409
10 | 23:25.35 | 2:38.73 | 105410 | 117332
11 | 26:04.33 | 2:07.10 | 117333 | 126867
12 | 28:11.43 | 2:39.45 | 126868 | 138837
13 | 30:51.13 | 2:45.39 | 138838 | 151251
14 | 33:36.52 | 2:38.54 | 151252 | 163155
15 | 36:15.31 | 2:21.64 | 163156 | 173794
16 | 38:37.20 | 2:35.20 | 173795 | 185439
17 | 41:12.40 | 2:05.65 | 185440 | 194879
18 | 43:18.30 | 2:32.44 | 194880 | 206323
19 | 45:50.74 | 2:43.08 | 206324 | 218556
20 | 48:34.07 | 2:55.29 | 218557 | 231710
21 | 51:29.36 | 2:39.37 | 231711 | 243672
22 | 54:08.73 | 2:02.63 | 243673 | 252885

Range status and errors

Selected range

Filename G:\CD\The Beatles - Beatles VI.wav

Peak level 100.0 %
Extraction speed 5.7 X
Range quality 99.9 %
Test CRC B9BE5792
Copy CRC B9BE5792
Copy OK

No errors occurred

AccurateRip summary

Track 1 not present in database
Track 2 not present in database
Track 3 not present in database
Track 4 not present in database
Track 5 not present in database
Track 6 not present in database
Track 7 not present in database
Track 8 not present in database
Track 9 not present in database
Track 10 not present in database
Track 11 not present in database
Track 12 not present in database
Track 13 not present in database
Track 14 not present in database
Track 15 not present in database
Track 16 not present in database
Track 17 not present in database
Track 18 not present in database
Track 19 not present in database
Track 20 not present in database
Track 21 not present in database
Track 22 not present in database

None of the tracks are present in the AccurateRip database

End of status report

==== Log checksum B3785C898652E8C3B19B87F69700C35EADA96E70E6B3A586EDFCB5E2D562E0F2 ====
[_/su_spoiler]

CUETools 2.1.5

[CUETools log; Date: 30.03.2014 9:50:52; Version: 2.1.5]
[CTDB TOCID: MF_Pi8tyXQkf9.Vobn.OMMpN5Rg-] found.
Track | CTDB Status
1 | (22/22) Accurately ripped
2 | (22/22) Accurately ripped
3 | (22/22) Accurately ripped
4 | (22/22) Accurately ripped
5 | (22/22) Accurately ripped
6 | (22/22) Accurately ripped
7 | (22/22) Accurately ripped
8 | (22/22) Accurately ripped
9 | (22/22) Accurately ripped
10 | (22/22) Accurately ripped
11 | (22/22) Accurately ripped
12 | (22/22) Accurately ripped
13 | (22/22) Accurately ripped
14 | (22/22) Accurately ripped
15 | (22/22) Accurately ripped
16 | (22/22) Accurately ripped
17 | (22/22) Accurately ripped
18 | (22/22) Accurately ripped
19 | (22/22) Accurately ripped
20 | (22/22) Accurately ripped
21 | (22/22) Accurately ripped
22 | (22/22) Accurately ripped
[AccurateRip ID: 002caa6d-02c9d966-270d2b16] found.
Track [ CRC | V2 ] Status
01 [4832e3f5|96d02ec6] (00+19/19) Accurately ripped
02 [abe542f0|d762ecfc] (00+19/19) Accurately ripped
03 [21004170|8982afb9] (00+19/19) Accurately ripped
04 [d0a45207|6c506c24] (00+19/19) Accurately ripped
05 [9c584bea|3ab08444] (00+19/19) Accurately ripped
06 [1f5d87a3|cf4dfd4b] (00+19/19) Accurately ripped
07 [fef2ace3|e3b60ec8] (00+19/19) Accurately ripped
08 [c609dce9|dcf7f3ff] (00+19/19) Accurately ripped
09 [f2734be3|9ecc6869] (00+19/19) Accurately ripped
10 [af7811a4|f4459f97] (00+19/19) Accurately ripped
11 [c98aa3e3|77bc3623] (00+19/19) Accurately ripped
12 [5a5baca9|1f274b62] (00+19/19) Accurately ripped
13 [b40e700e|d92a0e10] (00+19/19) Accurately ripped
14 [8734d96c|bad24637] (00+19/19) Accurately ripped
15 [89f12dd1|dee43114] (00+19/19) Accurately ripped
16 [2545c853|87663626] (00+19/19) Accurately ripped
17 [9d6f6203|b704950a] (00+19/19) Accurately ripped
18 [3dc71ffb|cf5c00c3] (00+19/19) Accurately ripped
19 [ceb0266d|7a4e51e4] (00+19/19) Accurately ripped
20 [21adcdd6|bcab8d04] (00+19/19) Accurately ripped
21 [49ec91dc|7955885e] (00+19/19) Accurately ripped
22 [271a2fcf|5dcfa041] (00+19/19) Accurately ripped

Track Peak [ CRC32 ] [W/O NULL] [ LOG ]
-- 100,0 [B9BE5792] [4DA2E24D] CRC32
01 95,5 [A3E19391] [FBAD2420]
02 96,6 [822D18D1] [AC70F485]
03 97,5 [BA9C2652] [83EE3155]
04 96,9 [0C3C823D] [4C5E16A5]
05 96,6 [A5D42144] [4DA4D62C]
06 96,6 [A22B7CFB] [35E08570]
07 96,6 [5C84AD56] [E49A5DE2]
08 96,6 [9C6D4FAA] [916484AF]
09 96,6 [4604868C] [0569F9D6]
10 100,0 [8517CADB] [CA122B0E]
11 100,0 [F2F74C9D] [4D4E26C1]
12 96,0 [C48F11FC] [1E692CE1]
13 95,5 [7D410B40] [06D38F01]
14 95,5 [C000FA3A] [7E8A7C06]
15 95,5 [A333E145] [B38BD80B]
16 95,5 [12509000] [795B4C93]
17 95,5 [949D987A] [55E4111D]
18 95,5 [5F65454B] [47CA1556]
19 95,5 [3C9BD5C9] [9B748351]
20 95,5 [75A7EF2B] [A2422B00]
21 95,5 [6A0116D1] [A7618EBC]
22 95,8 [A0A3EED6] [9B2F79B9]
[_/su_spoiler]


Help! - Original Motion Picture Soundtrack (1965)

Help! - Original Motion Picture Soundtrack (1965)

Help! – Original Motion Picture Soundtrack (1965)
EAC Rip | FLAC Image + Cue + Log | Full Scans @600 dpi, JPG
Label: Capitol Records | Cat#: SMAS 2386 | Genre: Classic Rock

Tracklist:
01. Help! (Mono) – 02:40
02. The Night Before (Mono) – 02:35
03. From Me To You Fantasy (Instrumental) (Mono) – 02:07
04. You’ve Got To Hide Your Love Away (Mono) – 02:11
05. I Need You (Mono) – 02:31
06. In The Tyrol (Instrumental) (Mono) – 02:24
07. Another Girl (Mono) – 02:08
08. Another Hard Day’s Night (Instrumental) (Mono) – 02:31
09. Ticket To Ride (Mono) – 03:07
10. The Bitter End – You Can’t Do That (Instrumental) (Mono) – 02:26
11. You’re Going To Lose That Girl (Mono) – 02:19
12. The Chase (Instrumental) (Mono) – 02:32
13. Help! (Stereo) – 02:39
14. The Night Before (Stereo) – 02:36
15. From Me To You Fantasy (Instrumental) (Stereo) – 02:07
16. You’ve Got To Hide Your Love Away (Stereo) – 02:12
17. I Need You (Stereo) – 02:31
18. In The Tyrol (Instrumental) (Stereo) – 02:24
19. Another Girl (Stereo) – 02:08
20. Another Hard Day’s Night (Instrumental) (Stereo) – 02:31
21. Ticket To Ride (Stereo) – 03:10
22. The Bitter End – You Can’t Do That (Instrumental) (Stereo) – 02:25
23. You’re Going To Lose That Girl (Stereo) – 02:19
24. The Chase (Instrumental) (Stereo) – 02:27

EAC Log

Exact Audio Copy V1.0 beta 3 from 29. August 2011

EAC extraction logfile from 1. February 2014, 1:00

The Beatles / Help!

Used drive : ATAPI iHAS124 B Adapter: 2 ID: 0

Read mode : Secure
Utilize accurate stream : Yes
Defeat audio cache : Yes
Make use of C2 pointers : No

Read offset correction : 6
Overread into Lead-In and Lead-Out : No
Fill up missing offset samples with silence : Yes
Delete leading and trailing silent blocks : No
Null samples used in CRC calculations : Yes
Used interface : Native Win32 interface for Win NT & 2000

Used output format : User Defined Encoder
Selected bitrate : 1024 kBit/s
Quality : High
Add ID3 tag : No
Command line compressor : C:\Program Files (x86)\Exact Audio Copy\FLAC\FLAC.EXE
Additional command line options : -V -8 -T "Date=%year%" -T "Genre=%genre%" %source%

TOC of the extracted CD

Track | Start | Length | Start sector | End sector
---------------------------------------------------------
1 | 0:00.00 | 2:40.07 | 0 | 12006
2 | 2:40.07 | 2:35.58 | 12007 | 23689
3 | 5:15.65 | 2:07.59 | 23690 | 33273
4 | 7:23.49 | 2:11.66 | 33274 | 43164
5 | 9:35.40 | 2:31.32 | 43165 | 54521
6 | 12:06.72 | 2:24.55 | 54522 | 65376
7 | 14:31.52 | 2:08.12 | 65377 | 74988
8 | 16:39.64 | 2:31.33 | 74989 | 86346
9 | 19:11.22 | 3:07.13 | 86347 | 100384
10 | 22:18.35 | 2:26.09 | 100385 | 111343
11 | 24:44.44 | 2:19.13 | 111344 | 121781
12 | 27:03.57 | 2:32.48 | 121782 | 133229
13 | 29:36.30 | 2:39.08 | 133230 | 145162
14 | 32:15.38 | 2:36.39 | 145163 | 156901
15 | 34:52.02 | 2:07.51 | 156902 | 166477
16 | 36:59.53 | 2:12.14 | 166478 | 176391
17 | 39:11.67 | 2:31.54 | 176392 | 187770
18 | 41:43.46 | 2:24.57 | 187771 | 198627
19 | 44:08.28 | 2:08.35 | 198628 | 208262
20 | 46:16.63 | 2:31.27 | 208263 | 219614
21 | 48:48.15 | 3:10.56 | 219615 | 233920
22 | 51:58.71 | 2:25.74 | 233921 | 244869
23 | 54:24.70 | 2:19.08 | 244870 | 255302
24 | 56:44.03 | 2:28.03 | 255303 | 266405

Range status and errors

Selected range

Filename G:\CD\The Beatles - Help!.wav

Peak level 96.6 %
Extraction speed 5.8 X
Range quality 99.9 %
Test CRC 5AA28340
Copy CRC 5AA28340
Copy OK

No errors occurred

AccurateRip summary

Track 1 not present in database
Track 2 not present in database
Track 3 not present in database
Track 4 not present in database
Track 5 not present in database
Track 6 not present in database
Track 7 not present in database
Track 8 not present in database
Track 9 not present in database
Track 10 not present in database
Track 11 not present in database
Track 12 not present in database
Track 13 not present in database
Track 14 not present in database
Track 15 not present in database
Track 16 not present in database
Track 17 not present in database
Track 18 not present in database
Track 19 not present in database
Track 20 not present in database
Track 21 not present in database
Track 22 not present in database
Track 23 not present in database
Track 24 not present in database

None of the tracks are present in the AccurateRip database

End of status report

==== Log checksum 773F3AAAD86AE1DEA9BF494EFCE7970765B0F43EED9BEAC7ADB6C79BDB4A866F ====
[_/su_spoiler]

CUETools 2.1.5

[CUETools log; Date: 30.03.2014 9:51:21; Version: 2.1.5]
[CTDB TOCID: WNy8Q2WVBKZU0mlTbVn8ZtsIl4w-] found.
Track | CTDB Status
1 | (24/24) Accurately ripped
2 | (24/24) Accurately ripped
3 | (24/24) Accurately ripped
4 | (24/24) Accurately ripped
5 | (24/24) Accurately ripped
6 | (24/24) Accurately ripped
7 | (24/24) Accurately ripped
8 | (24/24) Accurately ripped
9 | (24/24) Accurately ripped
10 | (24/24) Accurately ripped
11 | (24/24) Accurately ripped
12 | (24/24) Accurately ripped
13 | (24/24) Accurately ripped
14 | (24/24) Accurately ripped
15 | (24/24) Accurately ripped
16 | (24/24) Accurately ripped
17 | (24/24) Accurately ripped
18 | (24/24) Accurately ripped
19 | (24/24) Accurately ripped
20 | (24/24) Accurately ripped
21 | (24/24) Accurately ripped
22 | (23/24) Accurately ripped
23 | (23/24) Accurately ripped
24 | (23/24) Accurately ripped
[AccurateRip ID: 0032a810-036e7d0f-400de018] found.
Track [ CRC | V2 ] Status
01 [b3f4bf2b|58508672] (00+19/19) Accurately ripped
02 [bbace7e6|7a30bbdc] (00+19/19) Accurately ripped
03 [6f73e952|a78d3b85] (00+19/19) Accurately ripped
04 [d30a07dd|21ccbce9] (00+19/19) Accurately ripped
05 [00d8feb6|8bbe026d] (00+19/19) Accurately ripped
06 [21964505|5a01b13a] (00+19/19) Accurately ripped
07 [78caa715|aac49645] (00+19/19) Accurately ripped
08 [4fb821b0|4032292c] (00+19/19) Accurately ripped
09 [ebb7f632|84c5c0dc] (00+19/19) Accurately ripped
10 [e7fc3a11|04315215] (00+19/19) Accurately ripped
11 [aae829ec|1d8e05dc] (00+19/19) Accurately ripped
12 [2fe59d05|8e53f2e3] (00+19/19) Accurately ripped
13 [6a539f19|dd3e0d27] (00+19/19) Accurately ripped
14 [075fd1d2|a5618dec] (00+19/19) Accurately ripped
15 [a36a844d|ca67a165] (00+19/19) Accurately ripped
16 [3c4d9f53|9251c326] (00+19/19) Accurately ripped
17 [e0d6146e|f7bc8084] (00+19/19) Accurately ripped
18 [5c3288e7|c7516a60] (00+19/19) Accurately ripped
19 [b89502f5|71bd7355] (00+19/19) Accurately ripped
20 [411eb581|59f8881c] (00+19/19) Accurately ripped
21 [f893d451|5573e86f] (00+19/19) Accurately ripped
22 [67f77cd7|baf08509] (00+19/19) Accurately ripped
23 [97163390|f1300385] (00+19/19) Accurately ripped
24 [2f132758|ccb66cd6] (00+19/19) Accurately ripped

Track Peak [ CRC32 ] [W/O NULL] [ LOG ]
-- 96,6 [5AA28340] [681F3349] CRC32
01 96,6 [ACD0E4B9] [5289C548]
02 96,3 [5492C6CB] [B32FB9A1]
03 84,6 [7CA329D4] [49B322A5]
04 96,6 [B0CD5902] [354B1189]
05 96,4 [1A2C74E5] [37E6F087]
06 96,6 [FF618146] [7C1DD067]
07 96,2 [5A7235EB] [87625356]
08 71,2 [29D675C4] [7A6E31E7]
09 96,6 [FE5ECE27] [ECDF3202]
10 94,2 [5E424CC9] [0EEF20C0]
11 96,6 [91839C96] [8BE2E51A]
12 90,9 [4564FC77] [AD4AA9EB]
13 96,6 [872F08F0] [1CE84735]
14 96,6 [E53BC793] [4AF04BDB]
15 94,1 [B2EB2A54] [D9F7B668]
16 96,6 [35B0224F] [B4C882B0]
17 96,6 [EA2A81B5] [77947454]
18 96,6 [C7EEAD72] [E289A926]
19 96,6 [79271EA9] [B6FC595D]
20 77,6 [9FD5FD68] [25C357AD]
21 96,6 [1056C601] [C0590459]
22 76,1 [E9280122] [AC89365A]
23 96,6 [29F94CD8] [F5019818]
24 83,4 [2AF92D5D] [2F9499BA]
[_/su_spoiler]


Rubber Soul (1965)

Rubber Soul (1965)

Rubber Soul (1965)
EAC Rip | FLAC Image + Cue + Log | Full Scans @600 dpi, JPG
Label: Capitol Records | Cat#: ST 2442 | Genre: Classic Rock

Tracklist:
01. I’ve Just Seen A Face (Mono) – 02:06
02. Norwegian Wood (This Bird Has Flown) (Mono) – 02:05
03. You Won’t See Me (Mono) – 03:26
04. Think for Yourself (Mono) – 02:19
05. The Word (Mono) – 02:46
06. Michelle (Mono) – 02:47
07. It’s Only Love (Mono) – 01:56
08. Girl (Mono) – 02:32
09. I’m Looking Through You (Mono) – 02:29
10. In My Life (Mono) – 02:27
11. Wait (Mono) – 02:15
12. Run For Your Life (Mono) – 02:26
13. I’ve Just Seen A Face (Stereo) – 02:06
14. Norwegian Wood (This Bird Has Flown) (Stereo) – 02:06
15. You Won’t See Me (Stereo) – 03:21
16. Think For Yourself (Stereo) – 02:19
17. The Word (Stereo) – 02:46
18. Michelle (Stereo) – 02:43
19. It’s Only Love (Stereo) – 01:58
20. Girl (Stereo) – 02:31
21. I’m Looking Through You (Stereo) – 02:31
22. In My Life (Stereo) – 02:27
23. Wait (Stereo) – 02:14
24. Run For Your Life (Stereo) – 02:20

EAC Log

Exact Audio Copy V1.0 beta 3 from 29. August 2011

EAC extraction logfile from 1. February 2014, 1:20

The Beatles / Rubber Soul

Used drive : ATAPI iHAS124 B Adapter: 2 ID: 0

Read mode : Secure
Utilize accurate stream : Yes
Defeat audio cache : Yes
Make use of C2 pointers : No

Read offset correction : 6
Overread into Lead-In and Lead-Out : No
Fill up missing offset samples with silence : Yes
Delete leading and trailing silent blocks : No
Null samples used in CRC calculations : Yes
Used interface : Native Win32 interface for Win NT & 2000

Used output format : User Defined Encoder
Selected bitrate : 1024 kBit/s
Quality : High
Add ID3 tag : No
Command line compressor : C:\Program Files (x86)\Exact Audio Copy\FLAC\FLAC.EXE
Additional command line options : -V -8 -T "Date=%year%" -T "Genre=%genre%" %source%

TOC of the extracted CD

Track | Start | Length | Start sector | End sector
---------------------------------------------------------
1 | 0:00.00 | 2:06.65 | 0 | 9514
2 | 2:06.65 | 2:05.35 | 9515 | 18924
3 | 4:12.25 | 3:26.51 | 18925 | 34425
4 | 7:39.01 | 2:19.36 | 34426 | 44886
5 | 9:58.37 | 2:46.03 | 44887 | 57339
6 | 12:44.40 | 2:47.07 | 57340 | 69871
7 | 15:31.47 | 1:56.62 | 69872 | 78633
8 | 17:28.34 | 2:32.05 | 78634 | 90038
9 | 20:00.39 | 2:29.59 | 90039 | 101272
10 | 22:30.23 | 2:27.02 | 101273 | 112299
11 | 24:57.25 | 2:15.14 | 112300 | 122438
12 | 27:12.39 | 2:26.18 | 122439 | 133406
13 | 29:38.57 | 2:06.34 | 133407 | 142890
14 | 31:45.16 | 2:06.01 | 142891 | 152341
15 | 33:51.17 | 3:21.14 | 152342 | 167430
16 | 37:12.31 | 2:19.63 | 167431 | 177918
17 | 39:32.19 | 2:46.55 | 177919 | 190423
18 | 42:18.74 | 2:43.18 | 190424 | 202666
19 | 45:02.17 | 1:58.26 | 202667 | 211542
20 | 47:00.43 | 2:31.27 | 211543 | 222894
21 | 49:31.70 | 2:31.42 | 222895 | 234261
22 | 52:03.37 | 2:27.25 | 234262 | 245311
23 | 54:30.62 | 2:14.29 | 245312 | 255390
24 | 56:45.16 | 2:21.14 | 255391 | 265979

Range status and errors

Selected range

Filename G:\CD\The Beatles - Rubber Soul.wav

Peak level 98.3 %
Extraction speed 5.9 X
Range quality 99.9 %
Test CRC 74F98D8F
Copy CRC 74F98D8F
Copy OK

No errors occurred

AccurateRip summary

Track 1 not present in database
Track 2 not present in database
Track 3 not present in database
Track 4 not present in database
Track 5 not present in database
Track 6 not present in database
Track 7 not present in database
Track 8 not present in database
Track 9 not present in database
Track 10 not present in database
Track 11 not present in database
Track 12 not present in database
Track 13 not present in database
Track 14 not present in database
Track 15 not present in database
Track 16 not present in database
Track 17 not present in database
Track 18 not present in database
Track 19 not present in database
Track 20 not present in database
Track 21 not present in database
Track 22 not present in database
Track 23 not present in database
Track 24 not present in database

None of the tracks are present in the AccurateRip database

End of status report

==== Log checksum B1432FC6606F8831F7F356AD054CE355774DBE96D6E24F19B8686978B88A13FC ====
[_/su_spoiler]

CUETools 2.1.5

[CUETools log; Date: 30.03.2014 9:51:51; Version: 2.1.5]
[CTDB TOCID: AF0B09.QK8aCPlgDNDybOmYfcHw-] found.
Track | CTDB Status
1 | (22/22) Accurately ripped
2 | (22/22) Accurately ripped
3 | (22/22) Accurately ripped
4 | (22/22) Accurately ripped
5 | (22/22) Accurately ripped
6 | (22/22) Accurately ripped
7 | (22/22) Accurately ripped
8 | (22/22) Accurately ripped
9 | (22/22) Accurately ripped
10 | (22/22) Accurately ripped
11 | (22/22) Accurately ripped
12 | (22/22) Accurately ripped
13 | (22/22) Accurately ripped
14 | (22/22) Accurately ripped
15 | (22/22) Accurately ripped
16 | (22/22) Accurately ripped
17 | (22/22) Accurately ripped
18 | (22/22) Accurately ripped
19 | (22/22) Accurately ripped
20 | (22/22) Accurately ripped
21 | (22/22) Accurately ripped
22 | (22/22) Accurately ripped
23 | (22/22) Accurately ripped
24 | (22/22) Accurately ripped
[AccurateRip ID: 0032ff22-0373ba68-2d0dda18] found.
Track [ CRC | V2 ] Status
01 [69ee6cd7|1f1991ea] (00+20/20) Accurately ripped
02 [a6eb6cc6|9c12baf9] (00+20/20) Accurately ripped
03 [478e5e82|d9d8e822] (00+20/20) Accurately ripped
04 [35658d76|b8d37855] (00+20/20) Accurately ripped
05 [5c82efcc|3639284a] (00+20/20) Accurately ripped
06 [79b31e87|34bf5403] (00+20/20) Accurately ripped
07 [fc5ce4a4|e7d1067e] (00+20/20) Accurately ripped
08 [63836c50|a7211a2b] (00+20/20) Accurately ripped
09 [2c245d4e|f9639364] (00+20/20) Accurately ripped
10 [e9627caa|f8539f2b] (00+20/20) Accurately ripped
11 [513653a2|2502448d] (00+20/20) Accurately ripped
12 [8caf860f|d6d3102a] (00+20/20) Accurately ripped
13 [4b35c231|d5bd0415] (00+20/20) Accurately ripped
14 [7886ea50|9a806bec] (00+20/20) Accurately ripped
15 [6baa716e|09c3942e] (00+20/20) Accurately ripped
16 [2e7680b6|b6d8446d] (00+20/20) Accurately ripped
17 [2afc6109|5ebc22ef] (00+20/20) Accurately ripped
18 [262aa9bd|d6aa8121] (00+20/20) Accurately ripped
19 [d2cf28dc|40d21ff6] (00+20/20) Accurately ripped
20 [42c6f16b|7be198a1] (00+20/20) Accurately ripped
21 [d8aef496|d36cca8c] (00+20/20) Accurately ripped
22 [6414e41d|25bff3ff] (00+20/20) Accurately ripped
23 [66eba94d|097f0ec2] (00+20/20) Accurately ripped
24 [6f1a1d58|3a2a79cf] (00+20/20) Accurately ripped

Track Peak [ CRC32 ] [W/O NULL] [ LOG ]
-- 98,3 [74F98D8F] [B71B9557] CRC32
01 96,6 [7F3421B2] [18DA3784]
02 96,6 [FE35C1F3] [82A672B6]
03 96,6 [41C54D9A] [53920A09]
04 96,6 [2120F8BF] [BEA6DBBC]
05 96,6 [A5FF79F4] [9100DE65]
06 92,6 [BEB484CE] [9619798B]
07 96,6 [E9A73E21] [621BF7A3]
08 97,8 [43505D75] [CD82B661]
09 96,6 [1C84BF81] [76A31667]
10 96,6 [456D894F] [0B23589A]
11 96,6 [A9D2CB36] [EC7E70C8]
12 96,6 [AB7822D4] [30160873]
13 98,3 [A1FD4215] [7E456182]
14 96,6 [3A2AD3CB] [2615072B]
15 96,6 [35480B65] [37C7B456]
16 96,6 [F813FC11] [99FF5C06]
17 96,6 [6904FE55] [47383FDF]
18 96,6 [5A806B10] [BD268155]
19 96,6 [6D3B72AE] [DC4D3326]
20 96,6 [DF7B843B] [7062E04C]
21 96,6 [133CBC11] [349B63A8]
22 96,6 [532DB9C6] [DAA08692]
23 96,6 [A0DEEDEE] [EC6A72F8]
24 97,9 [3AFB468B] [34B287AB]
[_/su_spoiler]


Yesterday And Today (1966)

Yesterday And Today (1966)

Yesterday And Today (1966)
EAC Rip | FLAC Image + Cue + Log | Full Scans @600 dpi, JPG
Label: Capitol Records | Cat#: ST 2553 | Genre: Classic Rock

Tracklist:
01. Drive My Car (Mono) – 02:30
02. I’m Only Sleeping (Mono) – 03:02
03. Nowhere Man (Mono) – 02:43
04. Dr. Robert (Mono) – 02:17
05. Yesterday (Mono) – 02:07
06. Act Naturally (Mono) – 02:31
07. And Your Bird Can Sing (Mono) – 02:02
08. If I Needed Someone (Mono) – 02:22
09. We Can Work It Out (Mono) – 02:16
10. What Goes On? (Mono) – 02:47
11. Day Tripper (Mono) – 02:56
12. Drive My Car (Stereo) – 02:30
13. I’m Only Sleeping (Stereo) – 03:01
14. Nowhere Man (Stereo) – 02:44
15. Dr. Robert (Stereo) – 02:15
16. Yesterday (Stereo) – 02:07
17. Act Naturally (Stereo) – 02:31
18. And Your Bird Can Sing (Stereo) – 02:02
19. If I Needed Someone (Stereo) – 02:23
20. We Can Work It Out (Stereo) – 02:15
21. What Goes On (Stereo) – 02:48
22. Day Tripper (Stereo) – 02:52

EAC Log

Exact Audio Copy V1.0 beta 3 from 29. August 2011

EAC extraction logfile from 1. February 2014, 1:42

The Beatles / Yesterday And Today

Used drive : ATAPI iHAS124 B Adapter: 2 ID: 0

Read mode : Secure
Utilize accurate stream : Yes
Defeat audio cache : Yes
Make use of C2 pointers : No

Read offset correction : 6
Overread into Lead-In and Lead-Out : No
Fill up missing offset samples with silence : Yes
Delete leading and trailing silent blocks : No
Null samples used in CRC calculations : Yes
Used interface : Native Win32 interface for Win NT & 2000

Used output format : User Defined Encoder
Selected bitrate : 1024 kBit/s
Quality : High
Add ID3 tag : No
Command line compressor : C:\Program Files (x86)\Exact Audio Copy\FLAC\FLAC.EXE
Additional command line options : -V -8 -T "Date=%year%" -T "Genre=%genre%" %source%

TOC of the extracted CD

Track | Start | Length | Start sector | End sector
---------------------------------------------------------
1 | 0:00.00 | 2:30.48 | 0 | 11297
2 | 2:30.48 | 3:02.36 | 11298 | 24983
3 | 5:33.09 | 2:43.38 | 24984 | 37246
4 | 8:16.47 | 2:17.30 | 37247 | 47551
5 | 10:34.02 | 2:07.08 | 47552 | 57084
6 | 12:41.10 | 2:31.11 | 57085 | 68420
7 | 15:12.21 | 2:02.37 | 68421 | 77607
8 | 17:14.58 | 2:22.40 | 77608 | 88297
9 | 19:37.23 | 2:16.35 | 88298 | 98532
10 | 21:53.58 | 2:47.68 | 98533 | 111125
11 | 24:41.51 | 2:56.15 | 111126 | 124340
12 | 27:37.66 | 2:30.45 | 124341 | 135635
13 | 30:08.36 | 3:01.74 | 135636 | 149284
14 | 33:10.35 | 2:44.68 | 149285 | 161652
15 | 35:55.28 | 2:15.38 | 161653 | 171815
16 | 38:10.66 | 2:07.07 | 171816 | 181347
17 | 40:17.73 | 2:31.68 | 181348 | 192740
18 | 42:49.66 | 2:02.21 | 192741 | 201911
19 | 44:52.12 | 2:23.29 | 201912 | 212665
20 | 47:15.41 | 2:15.56 | 212666 | 222846
21 | 49:31.22 | 2:48.47 | 222847 | 235493
22 | 52:19.69 | 2:51.47 | 235494 | 248365

Range status and errors

Selected range

Filename G:\CD\The Beatles - Yesterday And Today.wav

Peak level 98.1 %
Extraction speed 5.8 X
Range quality 100.0 %
Test CRC 7362E7C2
Copy CRC 7362E7C2
Copy OK

No errors occurred

AccurateRip summary

Track 1 not present in database
Track 2 not present in database
Track 3 not present in database
Track 4 not present in database
Track 5 not present in database
Track 6 not present in database
Track 7 not present in database
Track 8 not present in database
Track 9 not present in database
Track 10 not present in database
Track 11 not present in database
Track 12 not present in database
Track 13 not present in database
Track 14 not present in database
Track 15 not present in database
Track 16 not present in database
Track 17 not present in database
Track 18 not present in database
Track 19 not present in database
Track 20 not present in database
Track 21 not present in database
Track 22 not present in database

None of the tracks are present in the AccurateRip database

End of status report

==== Log checksum 9EFBEC829F67FE9468DF050F174EC2638C2333A4A343BF56BB26C9025B86CC52 ====
[_/su_spoiler]

CUETools 2.1.5

[CUETools log; Date: 30.03.2014 9:52:19; Version: 2.1.5]
[CTDB TOCID: uE_Tasjau99qqGGOu6yycwt.ZYQ-] found.
Track | CTDB Status
1 | (36/36) Accurately ripped
2 | (36/36) Accurately ripped
3 | (36/36) Accurately ripped
4 | (36/36) Accurately ripped
5 | (36/36) Accurately ripped
6 | (36/36) Accurately ripped
7 | (36/36) Accurately ripped
8 | (36/36) Accurately ripped
9 | (36/36) Accurately ripped
10 | (36/36) Accurately ripped
11 | (36/36) Accurately ripped
12 | (36/36) Accurately ripped
13 | (36/36) Accurately ripped
14 | (36/36) Accurately ripped
15 | (36/36) Accurately ripped
16 | (36/36) Accurately ripped
17 | (36/36) Accurately ripped
18 | (36/36) Accurately ripped
19 | (36/36) Accurately ripped
20 | (36/36) Accurately ripped
21 | (36/36) Accurately ripped
22 | (36/36) Accurately ripped
[AccurateRip ID: 002ba4e1-02b8c3d8-460cef16] found.
Track [ CRC | V2 ] Status
01 [5cae94c6|0a084f10] (00+28/28) Accurately ripped
02 [28d23b1a|5d89a03c] (00+28/28) Accurately ripped
03 [ea2dff92|bc006912] (00+28/28) Accurately ripped
04 [6f469732|476577a8] (00+28/28) Accurately ripped
05 [03a0d5b1|621d78d4] (00+28/28) Accurately ripped
06 [58aaafea|c2612fc3] (00+28/28) Accurately ripped
07 [71fca889|dbd3aa72] (00+28/28) Accurately ripped
08 [7a7e7f62|e4e2e273] (00+28/28) Accurately ripped
09 [c45e2d9b|4ac8098e] (00+28/28) Accurately ripped
10 [a2dadf75|f5cf9f90] (00+28/28) Accurately ripped
11 [37935c70|56b1ce22] (00+28/28) Accurately ripped
12 [aeed8c0c|5cf54c14] (00+28/28) Accurately ripped
13 [39ce26ee|d6e57884] (00+28/28) Accurately ripped
14 [66fd333e|b9c51dc6] (00+28/28) Accurately ripped
15 [1e7e6ada|ada47b5c] (00+28/28) Accurately ripped
16 [f29f1b1a|78670f19] (00+28/28) Accurately ripped
17 [6935d579|b6bc27a3] (00+28/28) Accurately ripped
18 [352d4957|23a6dbf4] (00+28/28) Accurately ripped
19 [b58f9905|e8c1c633] (00+28/28) Accurately ripped
20 [0ad4d21d|0d573720] (00+28/28) Accurately ripped
21 [ceed87d9|c3c31314] (00+28/28) Accurately ripped
22 [d6f050e3|84cde4ab] (00+29/29) Accurately ripped

Track Peak [ CRC32 ] [W/O NULL] [ LOG ]
-- 98,1 [7362E7C2] [B8F914D3] CRC32
01 96,6 [81420620] [C3CF4BCB]
02 96,1 [DBCE6F2F] [8D1E2BE8]
03 96,6 [B6D11ABD] [3F116322]
04 98,1 [33F96D13] [F21F2B21]
05 96,6 [4EC47875] [F0706276]
06 96,6 [0CEBD72B] [E811B51C]
07 96,6 [56815916] [9EDBB2E2]
08 96,6 [8FFE91D0] [3D274D5D]
09 96,6 [EC1C831E] [5A03CA1A]
10 96,6 [2297CC09] [DB1A4A18]
11 96,7 [B9A0A2AA] [03CF51F7]
12 96,6 [1A41F9BF] [5447F5BD]
13 96,6 [7B9D7A14] [3ECC9755]
14 96,6 [CEA259CB] [DE79D214]
15 96,6 [3F34418D] [FACC7FE6]
16 96,6 [BE1ED5C3] [42E5FB2E]
17 96,6 [EA498B21] [26881C89]
18 96,6 [DCC2B6CF] [4FC1193F]
19 96,6 [0728D2AB] [3208C93E]
20 96,6 [8A75C1F5] [E38CB467]
21 96,6 [A3171E02] [64EEE472]
22 96,6 [8B9246DD] [C53C087F]
[_/su_spoiler]


Revolver (1966)

Revolver (1966)

Revolver (1966)
EAC Rip | FLAC Image + Cue + Log | Full Scans @600 dpi, JPG
Label: Capitol Records | Cat#: ST 2576 | Genre: Classic Rock

Tracklist:
01. Taxman (Mono) – 02:41
02. Eleanor Rigby (Mono) – 02:09
03. Love You To (Mono) – 03:09
04. Here, There And Everywhere (Mono) – 02:25
05. Yellow Submarine (Mono) – 02:41
06. She Said She Said (Mono) – 02:36
07. Good Day Sunshine (Mono) – 02:12
08. For No One (Mono) – 02:02
09. I Want To Tell You (Mono) – 02:31
10. Got To Get You Into My Life (Mono) – 02:38
11. Tomorrow Never Knows (Mono) – 03:01
12. Taxman (Stereo) – 02:39
13. Eleanor Rigby (Stereo) – 02:07
14. Love You To (Stereo) – 03:00
15. Here, There And Everywhere (Stereo) – 02:26
16. Yellow Submarine (Stereo) – 02:40
17. She Said She Said (Stereo) – 02:36
18. Good Day Sunshine (Stereo) – 02:10
19. For No One (Stereo) – 02:01
20. I Want To Tell You (Stereo) – 02:30
21. Got To Get You Into My Life (Stereo) – 02:30
22. Tomorrow Never Knows (Stereo) – 02:59

EAC Log

Exact Audio Copy V1.0 beta 3 from 29. August 2011

EAC extraction logfile from 1. February 2014, 8:51

The Beatles / Revolver

Used drive : ATAPI iHAS124 B Adapter: 2 ID: 0

Read mode : Secure
Utilize accurate stream : Yes
Defeat audio cache : Yes
Make use of C2 pointers : No

Read offset correction : 6
Overread into Lead-In and Lead-Out : No
Fill up missing offset samples with silence : Yes
Delete leading and trailing silent blocks : No
Null samples used in CRC calculations : Yes
Used interface : Native Win32 interface for Win NT & 2000

Used output format : User Defined Encoder
Selected bitrate : 1024 kBit/s
Quality : High
Add ID3 tag : No
Command line compressor : C:\Program Files (x86)\Exact Audio Copy\FLAC\FLAC.EXE
Additional command line options : -V -8 -T "Date=%year%" -T "Genre=%genre%" %source%

TOC of the extracted CD

Track | Start | Length | Start sector | End sector
---------------------------------------------------------
1 | 0:00.00 | 2:41.72 | 0 | 12146
2 | 2:41.72 | 2:09.38 | 12147 | 21859
3 | 4:51.35 | 3:09.15 | 21860 | 36049
4 | 8:00.50 | 2:25.48 | 36050 | 46972
5 | 10:26.23 | 2:41.68 | 46973 | 59115
6 | 13:08.16 | 2:36.60 | 59116 | 70875
7 | 15:45.01 | 2:12.10 | 70876 | 80785
8 | 17:57.11 | 2:02.16 | 80786 | 89951
9 | 19:59.27 | 2:31.43 | 89952 | 101319
10 | 22:30.70 | 2:38.50 | 101320 | 113219
11 | 25:09.45 | 3:01.37 | 113220 | 126831
12 | 28:11.07 | 2:39.42 | 126832 | 138798
13 | 30:50.49 | 2:07.59 | 138799 | 148382
14 | 32:58.33 | 3:00.70 | 148383 | 161952
15 | 35:59.28 | 2:26.02 | 161953 | 172904
16 | 38:25.30 | 2:40.17 | 172905 | 184921
17 | 41:05.47 | 2:36.67 | 184922 | 196688
18 | 43:42.39 | 2:10.62 | 196689 | 206500
19 | 45:53.26 | 2:01.35 | 206501 | 215610
20 | 47:54.61 | 2:30.04 | 215611 | 226864
21 | 50:24.65 | 2:30.01 | 226865 | 238115
22 | 52:54.66 | 2:58.60 | 238116 | 251525

Range status and errors

Selected range

Filename G:\CD\The Beatles - Revolver.wav

Peak level 95.5 %
Extraction speed 5.9 X
Range quality 100.0 %
Test CRC 8C30426F
Copy CRC 8C30426F
Copy OK

No errors occurred

AccurateRip summary

Track 1 not present in database
Track 2 not present in database
Track 3 not present in database
Track 4 not present in database
Track 5 not present in database
Track 6 not present in database
Track 7 not present in database
Track 8 not present in database
Track 9 not present in database
Track 10 not present in database
Track 11 not present in database
Track 12 not present in database
Track 13 not present in database
Track 14 not present in database
Track 15 not present in database
Track 16 not present in database
Track 17 not present in database
Track 18 not present in database
Track 19 not present in database
Track 20 not present in database
Track 21 not present in database
Track 22 not present in database

None of the tracks are present in the AccurateRip database

End of status report

==== Log checksum 396FE52599688918B2E5ED60AA6B653E34F7AAB87ABCA137A6B087208AC98847 ====
[_/su_spoiler]

CUETools 2.1.5

[CUETools log; Date: 30.03.2014 9:52:51; Version: 2.1.5]
[CTDB TOCID: f3pWC1tcJjWYxRcYOAsyUA2rZ.4-] found.
Track | CTDB Status
1 | (23/23) Accurately ripped
2 | (23/23) Accurately ripped
3 | (23/23) Accurately ripped
4 | (23/23) Accurately ripped
5 | (23/23) Accurately ripped
6 | (23/23) Accurately ripped
7 | (23/23) Accurately ripped
8 | (23/23) Accurately ripped
9 | (23/23) Accurately ripped
10 | (23/23) Accurately ripped
11 | (23/23) Accurately ripped
12 | (23/23) Accurately ripped
13 | (23/23) Accurately ripped
14 | (23/23) Accurately ripped
15 | (23/23) Accurately ripped
16 | (23/23) Accurately ripped
17 | (23/23) Accurately ripped
18 | (23/23) Accurately ripped
19 | (23/23) Accurately ripped
20 | (23/23) Accurately ripped
21 | (23/23) Accurately ripped
22 | (23/23) Accurately ripped
[AccurateRip ID: 002c459a-02c31d06-370d1916] found.
Track [ CRC | V2 ] Status
01 [da5524f8|6a1d0b85] (00+21/21) Accurately ripped
02 [dcd6cde9|dadb21d6] (00+21/21) Accurately ripped
03 [d6fcdee8|fe80e5fb] (00+21/21) Accurately ripped
04 [a7a1753c|ec290fb2] (00+21/21) Accurately ripped
05 [a30fd1a9|65751e77] (00+21/21) Accurately ripped
06 [d48eec75|1ce5e73f] (00+21/21) Accurately ripped
07 [89c4f6e0|e2b5bc51] (00+21/21) Accurately ripped
08 [634f0f53|49f2ff0a] (00+21/21) Accurately ripped
09 [d9a7e25a|4116a5dd] (00+21/21) Accurately ripped
10 [e8750502|62519b5c] (00+21/21) Accurately ripped
11 [f8ce87aa|3be8b412] (00+21/21) Accurately ripped
12 [503c71e7|9f9c176f] (00+21/21) Accurately ripped
13 [dd1dc7d6|1b079e27] (00+21/21) Accurately ripped
14 [05011cbf|b59b0a36] (00+21/21) Accurately ripped
15 [02e7ba24|3c71bd3f] (00+21/21) Accurately ripped
16 [2cfcba5f|8a673dd5] (00+21/21) Accurately ripped
17 [0e660f1d|844f9dfc] (00+21/21) Accurately ripped
18 [92797588|1a8381f4] (00+21/21) Accurately ripped
19 [7b884b78|26138179] (00+21/21) Accurately ripped
20 [c0788646|dc0fd9ac] (00+21/21) Accurately ripped
21 [59d438de|751ffac7] (00+21/21) Accurately ripped
22 [1628384d|970c61e4] (00+22/22) Accurately ripped

Track Peak [ CRC32 ] [W/O NULL] [ LOG ]
-- 95,5 [8C30426F] [72B3ADA6] CRC32
01 95,5 [4FD8E9D4] [67A44F6C]
02 86,1 [8BB7200A] [ABF76FD5]
03 95,5 [EEA2E2D5] [73DDDD07]
04 95,5 [E36CF861] [849E35D6]
05 95,5 [DDCB2899] [8B70BCF4]
06 92,8 [90E41EEF] [C2154286]
07 95,5 [72E08243] [0826521D]
08 87,4 [C37A4506] [279E0F4E]
09 95,5 [4CA129DD] [0F65EBC8]
10 95,5 [6CAEBF9A] [93374B88]
11 95,5 [A6AD1DC2] [F2C237FF]
12 95,5 [21C08E6A] [EEC9E445]
13 87,2 [C8BF64FB] [B51431E1]
14 91,1 [6DA2006C] [4B833702]
15 95,5 [3A3EA007] [60876726]
16 95,5 [8BB17330] [C19A5772]
17 95,5 [E648489C] [5F5EB0A8]
18 95,5 [0CFAC334] [0C612366]
19 95,5 [90FCA278] [6FDCC93F]
20 95,5 [66D9062F] [7240E025]
21 93,1 [F3B2E629] [EB2EC701]
22 95,1 [8F6DE73F] [9443579D]
[_/su_spoiler]


Hey Jude (1970)

Hey Jude (1970)

Hey Jude (1970)
EAC Rip | FLAC Image + Cue + Log | Full Scans @600 dpi, JPG
Label: Capitol Records | Cat#: SW 385 | Genre: Classic Rock

Tracklist:
01. Can’t Buy Me Love (Stereo) – 02:13
02. I Should Have Known Better (Stereo) – 02:45
03. Paperback Writer (Stereo) – 02:20
04. Rain (Stereo) – 03:04
05. Lady Madonna (Stereo) – 02:20
06. Revolution (Stereo) – 03:27
07. Hey Jude (Stereo) – 07:12
08. Old Brown Shoe (Stereo) – 03:22
09. Don’t Let Me Down (Stereo) – 03:37
10. The Ballad of John And Yoko (Stereo) – 03:00

EAC Log

Exact Audio Copy V1.0 beta 3 from 29. August 2011

EAC extraction logfile from 1. February 2014, 9:09

The Beatles / Hey Jude

Used drive : ATAPI iHAS124 B Adapter: 2 ID: 0

Read mode : Secure
Utilize accurate stream : Yes
Defeat audio cache : Yes
Make use of C2 pointers : No

Read offset correction : 6
Overread into Lead-In and Lead-Out : No
Fill up missing offset samples with silence : Yes
Delete leading and trailing silent blocks : No
Null samples used in CRC calculations : Yes
Used interface : Native Win32 interface for Win NT & 2000

Used output format : User Defined Encoder
Selected bitrate : 1024 kBit/s
Quality : High
Add ID3 tag : No
Command line compressor : C:\Program Files (x86)\Exact Audio Copy\FLAC\FLAC.EXE
Additional command line options : -V -8 -T "Date=%year%" -T "Genre=%genre%" %source%

TOC of the extracted CD

Track | Start | Length | Start sector | End sector
---------------------------------------------------------
1 | 0:00.00 | 2:13.67 | 0 | 10041
2 | 2:13.67 | 2:45.55 | 10042 | 22471
3 | 4:59.47 | 2:20.59 | 22472 | 33030
4 | 7:20.31 | 3:04.58 | 33031 | 46888
5 | 10:25.14 | 2:20.30 | 46889 | 57418
6 | 12:45.44 | 3:27.17 | 57419 | 72960
7 | 16:12.61 | 7:12.15 | 72961 | 105375
8 | 23:25.01 | 3:22.00 | 105376 | 120525
9 | 26:47.01 | 3:37.66 | 120526 | 136866
10 | 30:24.67 | 2:59.51 | 136867 | 150342

Range status and errors

Selected range

Filename G:\CD\The Beatles - Hey Jude.wav

Peak level 96.6 %
Extraction speed 5.1 X
Range quality 100.0 %
Test CRC 0D4C972D
Copy CRC 0D4C972D
Copy OK

No errors occurred

AccurateRip summary

Track 1 not present in database
Track 2 not present in database
Track 3 not present in database
Track 4 not present in database
Track 5 not present in database
Track 6 not present in database
Track 7 not present in database
Track 8 not present in database
Track 9 not present in database
Track 10 not present in database

None of the tracks are present in the AccurateRip database

End of status report

==== Log checksum D1DA4C2EDEA665DEE006613CA4B1B9602627A5F7FC5416CC0C3D9510531A8064 ====
[_/su_spoiler]

CUETools 2.1.5

[CUETools log; Date: 30.03.2014 9:53:12; Version: 2.1.5]
[CTDB TOCID: cqFEL7OAeRCxo41FDIN6h_qsZQc-] found.
Track | CTDB Status
1 | (32/32) Accurately ripped
2 | (32/32) Accurately ripped
3 | (32/32) Accurately ripped
4 | (32/32) Accurately ripped
5 | (32/32) Accurately ripped
6 | (32/32) Accurately ripped
7 | (32/32) Accurately ripped
8 | (32/32) Accurately ripped
9 | (32/32) Accurately ripped
10 | (32/32) Accurately ripped
[AccurateRip ID: 000b88d6-005f8328-7d07d40a] found.
Track [ CRC | V2 ] Status
01 [96bd66b6|deb978ed] (00+25/25) Accurately ripped
02 [e3bd93cb|89d0f621] (00+25/25) Accurately ripped
03 [e5f2dba6|acbfc58f] (00+25/25) Accurately ripped
04 [61968734|e86d7fd4] (00+25/25) Accurately ripped
05 [0d9a55bb|e764600d] (00+25/25) Accurately ripped
06 [ee89b715|b31fcc6e] (00+25/25) Accurately ripped
07 [e90fc54b|eb2ff61b] (00+25/25) Accurately ripped
08 [127284e1|3523d2be] (00+25/25) Accurately ripped
09 [9d005d41|a2e19469] (00+25/25) Accurately ripped
10 [deb3f22b|848e7036] (00+25/25) Accurately ripped

Track Peak [ CRC32 ] [W/O NULL] [ LOG ]
-- 96,6 [0D4C972D] [11492A74] CRC32
01 96,6 [542E4825] [E932C7D6]
02 95,0 [D794B43A] [E799E90A]
03 96,6 [2FCAB1E9] [B89D6D3F]
04 93,9 [57D08A5C] [7B8588D1]
05 96,6 [9C485581] [F98A2D4B]
06 96,6 [76A969E6] [44DB429E]
07 96,6 [B52B5DDF] [E7BCE3E4]
08 96,6 [B75756FC] [8D5E03A5]
09 96,6 [4DC6A01F] [0116BD82]
10 96,6 [DB4E27EE] [C73AE022]
[_/su_spoiler]


Back & CD Labels

imagebam.com imagebam.com imagebam.com imagebam.com imagebam.com imagebam.com imagebam.com imagebam.com imagebam.com imagebam.com imagebam.com imagebam.com imagebam.com imagebam.com imagebam.com imagebam.com imagebam.com imagebam.com imagebam.com imagebam.com imagebam.com imagebam.com imagebam.com imagebam.com imagebam.com imagebam.com


Download From
LMA__TB.T.US.ALBUMS
 
Password: www.LosslessMA.net
 
If you encounter broken links or other problem about this publication, please let me know
and write your comment below. I will reply and fix as soon as possible.