T.Rex – Electric Warrior (1971) {2012, Deluxe Edition}

T.Rex - Electric Warrior (1971) {2012, Deluxe Edition}

T.Rex – Electric Warrior (1971) {2012, Deluxe Edition}
EAC Rip | 2xCD | FLAC Image + Cue + Log | Full Scans @300 dpi, PNG
FLAC: 753 MB | Scans: 280 MB | 3% RAR Recovery
Label: Universal International Music | Cat#: 533 780-0 | Genre: Glam Rock

Electric Warrior is the sixth studio album by English glam rock act T. Rex (being the second album under the name “T. Rex”, with the first four billed as “Tyrannosaurus Rex”). It was released on 24 September 1971 by record label Fly in the UK and Reprise in the US. The album marks a turning point in the band’s sound, dispensing with the folk-oriented music of the group’s previous albums and pioneering a new, “glammier” style of rock known as glam rock The album also drew attention to the band in the United States with the top 10 hit “Get It On”.

Personnel / Credits:
• Marc Bolan – vocals, guitar
• Mickey Finn – conga drums, bongos
• Steve Currie – bass guitar
• Bill Legend – drums
• Howard Kaylan – backing vocals
• Mark Volman – backing vocals
• Rick Wakeman – keyboards on “Bang a Gong (Get It On)”
• Elton John – keyboards on “Bang a Gong (Get It On)”
• Ian McDonald – saxophone
• Burt Collins – flugelhorn

Additional Info:
• Recorded Date: March–June 1971 at Trident Studios and Advision Studios, London, England; Wally Heider Studios, Los Angeles; Media Sound Studios, New York City, United States
• Original Released Date: September 24, 1971
• Released Date: 2012
• Producer: Tony Visconti
• More info: Here

Disc 1:
01. Mambo Sun – 03:39
02. Cosmic Dancer – 04:28
03. Jeepster – 04:10
04. Monolith – 03:47
05. Lean Woman Blues – 03:00
06. Get It On – 04:25
07. Planet Queen – 03:11
08. Girl – 02:31
09. The Motivator – 03:58
10. Life’s A Gas – 02:23
11. Rip Off – 03:45
Bonus Tracks
12. There Was A Time / Raw Ramp (Single B-Side) – 05:16
13. Hot Love (Single A-Side) – 04:57
14. The King Of The Mountain Cometh (Single B-Side) – 02:28
15. Woodland Rock (Single B-Side) – 03:53

Disc 2
01. Electric Warrior Poem (US Radio Promo) – 00:21
02. Mambo Sun (Instrumental Edit) – 03:51
03. Cosmic Dancer (Single Vocal Mix) – 04:28
04. Jeepster (Single Vocal Mix) – 04:20
05. Monolith (Working Version) – 02:25
06. Lean Woman Blues (Working Version) – 03:07
07. Get It On (Full Length Version) – 05:50
08. Planet Queen (Working Version) – 02:58
09. Girl (Alternate Master) – 02:37
10. The Motivator (Working Version) – 03:59
11. Life’s A Gas (Working Version) – 03:34
12. Rip Off (Instrumental) – 03:20
13. Raw Ramp (Working Version) – 02:23
14. Electric Boogie (Working Version) – 02:08
15. Untitled Instrumental Aka A Lot Of Rubbish (Studio Out-Take) – 01:37
16. Honey Don’t (Studio Out-Take) – 03:25
17. Planet Queen (Electric Home Demo) – 02:27
18. Girl (Acoustic Home Demo) – 00:40
19. Jeepster (Electric Home Demo) – 02:36
20. Get It On (Acoustic Home Demo) – 03:17
21. Electric Warrior Poem And Radio Advert (US Radio Promo) – 00:58

EAC Logs
EAC Log Disc 1

Exact Audio Copy V1.0 beta 4 from 7. December 2014

EAC extraction logfile from 20. March 2015, 22:53

T. Rex / Electric Warrior Deluxe CD1

Used drive : PLEXTOR BD-R PX-B950SA Adapter: 1 ID: 1

Read mode : Secure
Utilize accurate stream : Yes
Defeat audio cache : Yes
Make use of C2 pointers : No

Read offset correction : 6
Overread into Lead-In and Lead-Out : No
Fill up missing offset samples with silence : Yes
Delete leading and trailing silent blocks : No
Null samples used in CRC calculations : Yes
Used interface : Native Win32 interface for Win NT & 2000

Used output format : Internal WAV Routines
Sample format : 44.100 Hz; 16 Bit; Stereo

TOC of the extracted CD

Track | Start | Length | Start sector | End sector
---------------------------------------------------------
1 | 0:00.05 | 3:39.65 | 5 | 16494
2 | 3:39.70 | 4:28.16 | 16495 | 36610
3 | 8:08.11 | 4:10.39 | 36611 | 55399
4 | 12:18.50 | 3:47.27 | 55400 | 72451
5 | 16:06.02 | 3:00.55 | 72452 | 86006
6 | 19:06.57 | 4:25.46 | 86007 | 105927
7 | 23:32.28 | 3:11.57 | 105928 | 120309
8 | 26:44.10 | 2:31.20 | 120310 | 131654
9 | 29:15.30 | 3:58.37 | 131655 | 149541
10 | 33:13.67 | 2:23.69 | 149542 | 160335
11 | 35:37.61 | 3:45.01 | 160336 | 177211
12 | 39:22.62 | 5:16.56 | 177212 | 200967
13 | 44:39.43 | 4:57.56 | 200968 | 223298
14 | 49:37.24 | 2:28.40 | 223299 | 234438
15 | 52:05.64 | 3:53.15 | 234439 | 251928

Range status and errors

Selected range

Filename C:\T. Rex\1971 Electric Warrior (2CD Deluxe Edition Polydor Records 2012)\CD1\T. Rex - Electric Warrior Deluxe CD1.wav

Peak level 98.8 %
Extraction speed 6.8 X
Range quality 99.9 %
Test CRC FD257DFE
Copy CRC FD257DFE
Copy OK

No errors occurred

AccurateRip summary

Track 1 accurately ripped (confidence 76) [F84649A0] (AR v2)
Track 2 accurately ripped (confidence 75) [1034AEA5] (AR v2)
Track 3 accurately ripped (confidence 75) [E69B7738] (AR v2)
Track 4 accurately ripped (confidence 76) [5BA7BBCB] (AR v2)
Track 5 accurately ripped (confidence 75) [D29460C3] (AR v2)
Track 6 accurately ripped (confidence 76) [0F19C427] (AR v2)
Track 7 accurately ripped (confidence 76) [F00D1042] (AR v2)
Track 8 accurately ripped (confidence 76) [EBEF4F11] (AR v2)
Track 9 accurately ripped (confidence 74) [BC90FA67] (AR v2)
Track 10 accurately ripped (confidence 75) [1003D716] (AR v2)
Track 11 accurately ripped (confidence 75) [713962CF] (AR v2)
Track 12 accurately ripped (confidence 75) [6FE21171] (AR v2)
Track 13 accurately ripped (confidence 75) [5241C1EC] (AR v2)
Track 14 accurately ripped (confidence 75) [1640334A] (AR v2)
Track 15 accurately ripped (confidence 77) [A642A69A] (AR v2)

All tracks accurately ripped

End of status report

---- CUETools DB Plugin V2.1.4

[CTDB TOCID: .7x0QIHHBuRbR5wlr84J_QyDU5E-] found
Submit result: .7x0QIHHBuRbR5wlr84J_QyDU5E- has been confirmed
Track | CTDB Status
1 | (10/10) Accurately ripped
2 | (10/10) Accurately ripped
3 | (10/10) Accurately ripped
4 | (10/10) Accurately ripped
5 | (10/10) Accurately ripped
6 | (10/10) Accurately ripped
7 | (10/10) Accurately ripped
8 | (10/10) Accurately ripped
9 | (10/10) Accurately ripped
10 | (10/10) Accurately ripped
11 | (10/10) Accurately ripped
12 | (10/10) Accurately ripped
13 | (10/10) Accurately ripped
14 | (10/10) Accurately ripped
15 | (10/10) Accurately ripped

==== Log checksum AC6C9374950C6128CDF66A86F02A82A561EA3CF761BDD8E9F7977DAF93332175 ====
[_/su_spoiler]

EAC Log Disc 2

Exact Audio Copy V1.0 beta 4 from 7. December 2014

EAC extraction logfile from 20. March 2015, 22:21

T. Rex / Electric Warrior Deluxe CD2

Used drive : PLEXTOR BD-R PX-B950SA Adapter: 1 ID: 1

Read mode : Secure
Utilize accurate stream : Yes
Defeat audio cache : Yes
Make use of C2 pointers : No

Read offset correction : 6
Overread into Lead-In and Lead-Out : No
Fill up missing offset samples with silence : Yes
Delete leading and trailing silent blocks : No
Null samples used in CRC calculations : Yes
Used interface : Native Win32 interface for Win NT & 2000

Used output format : Internal WAV Routines
Sample format : 44.100 Hz; 16 Bit; Stereo

TOC of the extracted CD

Track | Start | Length | Start sector | End sector
---------------------------------------------------------
1 | 0:00.00 | 0:21.59 | 0 | 1633
2 | 0:21.59 | 3:51.39 | 1634 | 18997
3 | 4:13.23 | 4:28.26 | 18998 | 39123
4 | 8:41.49 | 4:20.21 | 39124 | 58644
5 | 13:01.70 | 2:25.54 | 58645 | 69573
6 | 15:27.49 | 3:07.15 | 69574 | 83613
7 | 18:34.64 | 5:50.27 | 83614 | 109890
8 | 24:25.16 | 2:58.33 | 109891 | 123273
9 | 27:23.49 | 2:37.70 | 123274 | 135118
10 | 30:01.44 | 3:59.59 | 135119 | 153102
11 | 34:01.28 | 3:34.38 | 153103 | 169190
12 | 37:35.66 | 3:20.60 | 169191 | 184250
13 | 40:56.51 | 2:23.20 | 184251 | 194995
14 | 43:19.71 | 2:08.33 | 194996 | 204628
15 | 45:28.29 | 1:37.66 | 204629 | 211969
16 | 47:06.20 | 3:25.56 | 211970 | 227400
17 | 50:32.01 | 2:27.36 | 227401 | 238461
18 | 52:59.37 | 0:40.40 | 238462 | 241501
19 | 53:40.02 | 2:36.55 | 241502 | 253256
20 | 56:16.57 | 3:17.59 | 253257 | 268090
21 | 59:34.41 | 0:58.31 | 268091 | 272471

Range status and errors

Selected range

Filename C:\T. Rex\1971 Electric Warrior (2CD Deluxe Edition Polydor Records 2012)\CD2\T. Rex - Electric Warrior Deluxe CD2.wav

Peak level 99.4 %
Extraction speed 7.4 X
Range quality 100.0 %
Test CRC F1E90263
Copy CRC F1E90263
Copy OK

No errors occurred

AccurateRip summary

Track 1 accurately ripped (confidence 40) [D0CDC9D4] (AR v2)
Track 2 accurately ripped (confidence 40) [06633374] (AR v2)
Track 3 accurately ripped (confidence 40) [B984C0B2] (AR v2)
Track 4 accurately ripped (confidence 40) [B2C15B3E] (AR v2)
Track 5 accurately ripped (confidence 40) [ABDFA76A] (AR v2)
Track 6 accurately ripped (confidence 38) [FF031DAE] (AR v2)
Track 7 accurately ripped (confidence 40) [247470BC] (AR v2)
Track 8 accurately ripped (confidence 40) [BC65E234] (AR v2)
Track 9 accurately ripped (confidence 40) [87D7EC6A] (AR v2)
Track 10 accurately ripped (confidence 39) [167ADF5F] (AR v2)
Track 11 accurately ripped (confidence 40) [309E2CF0] (AR v2)
Track 12 accurately ripped (confidence 40) [5233A1B1] (AR v2)
Track 13 accurately ripped (confidence 40) [C94636B5] (AR v2)
Track 14 accurately ripped (confidence 40) [E02985D3] (AR v2)
Track 15 accurately ripped (confidence 40) [C7BDDCFC] (AR v2)
Track 16 accurately ripped (confidence 40) [F97D86D0] (AR v2)
Track 17 accurately ripped (confidence 40) [5F03F1AE] (AR v2)
Track 18 accurately ripped (confidence 40) [FC1D718D] (AR v2)
Track 19 accurately ripped (confidence 40) [6EEC6459] (AR v2)
Track 20 accurately ripped (confidence 40) [A5911FC5] (AR v2)
Track 21 accurately ripped (confidence 40) [A0E88F2D] (AR v2)

All tracks accurately ripped

End of status report

---- CUETools DB Plugin V2.1.4

[CTDB TOCID: 2CmbNASXbAkqdCbZPzyeCNbX3l4-] found
Submit result: 2CmbNASXbAkqdCbZPzyeCNbX3l4- has been confirmed
Track | CTDB Status
1 | (23/23) Accurately ripped
2 | (23/23) Accurately ripped
3 | (23/23) Accurately ripped
4 | (23/23) Accurately ripped
5 | (23/23) Accurately ripped
6 | (22/23) Accurately ripped
7 | (23/23) Accurately ripped
8 | (23/23) Accurately ripped
9 | (23/23) Accurately ripped
10 | (23/23) Accurately ripped
11 | (23/23) Accurately ripped
12 | (23/23) Accurately ripped
13 | (23/23) Accurately ripped
14 | (23/23) Accurately ripped
15 | (23/23) Accurately ripped
16 | (23/23) Accurately ripped
17 | (23/23) Accurately ripped
18 | (23/23) Accurately ripped
19 | (23/23) Accurately ripped
20 | (23/23) Accurately ripped
21 | (23/23) Accurately ripped

==== Log checksum 159D8C3E78AF1ABE28A7CD12CE15EDBBCE08F1BDB34C3A4ABFEB562241D6EC55 ====
[_/su_spoiler]

CUETools 2.1.5 Logs
CUETools 2.1.5 Disc 1

[CUETools log; Date: 4/3/2015 9:56:32 PM; Version: 2.1.5]
Pregap length 00:00:05.
[CTDB TOCID: .7x0QIHHBuRbR5wlr84J_QyDU5E-] found.
Track | CTDB Status
1 | (13/13) Accurately ripped
2 | (13/13) Accurately ripped
3 | (13/13) Accurately ripped
4 | (13/13) Accurately ripped
5 | (13/13) Accurately ripped
6 | (13/13) Accurately ripped
7 | (13/13) Accurately ripped
8 | (13/13) Accurately ripped
9 | (13/13) Accurately ripped
10 | (13/13) Accurately ripped
11 | (13/13) Accurately ripped
12 | (13/13) Accurately ripped
13 | (13/13) Accurately ripped
14 | (13/13) Accurately ripped
15 | (13/13) Accurately ripped
[AccurateRip ID: 001edcbc-015bf418-de0d1f0f] found.
Track [ CRC | V2 ] Status
01 [3058b828|f84649a0] (07+76/83) Accurately ripped
02 [70ebfb9e|1034aea5] (07+75/82) Accurately ripped
03 [f4c76b78|e69b7738] (07+75/82) Accurately ripped
04 [c519a8d6|5ba7bbcb] (07+76/83) Accurately ripped
05 [dd076ff5|d29460c3] (07+75/82) Accurately ripped
06 [4d902d6f|0f19c427] (07+76/83) Accurately ripped
07 [913e00a4|f00d1042] (07+76/83) Accurately ripped
08 [3f0b2c9d|ebef4f11] (07+76/83) Accurately ripped
09 [19beb7a1|bc90fa67] (07+74/81) Accurately ripped
10 [a9c6b1c3|1003d716] (07+75/82) Accurately ripped
11 [9731ded3|713962cf] (07+75/82) Accurately ripped
12 [1d2888e4|6fe21171] (06+75/81) Accurately ripped
13 [be416725|5241c1ec] (07+75/82) Accurately ripped
14 [3206ebf5|1640334a] (07+75/82) Accurately ripped
15 [d6aed0ac|a642a69a] (07+77/84) Accurately ripped

Track Peak [ CRC32 ] [W/O NULL] [ LOG ]
-- 98.8 [FD257DFE] [59BEE016] CRC32
01 98.8 [061D45EB] [86E10478]
02 98.8 [7850A72F] [79F2F243]
03 98.8 [C098D835] [C9B55A32]
04 98.8 [B38F1F7B] [B33CF081]
05 98.8 [C871FC17] [5F8FCCA1]
06 98.8 [ED17B66F] [2B7AE3C1]
07 98.8 [7523549D] [D9A7F111]
08 98.8 [22B623E3] [0A83BEE6]
09 98.8 [0C1AD5B1] [F1B1106F]
10 98.8 [17B7892E] [D2626AEB]
11 98.8 [B0D2D8D5] [A2297C46]
12 98.8 [0AE6528F] [F12CB5D7]
13 98.8 [630D7A69] [D43DE08F]
14 98.8 [C13DC1E9] [B45A4233]
15 92.7 [97E78D94] [A5C1736F]
[_/su_spoiler]

CUETools 2.1.5 Disc 2

[CUETools log; Date: 4/3/2015 9:56:43 PM; Version: 2.1.5]
[CTDB TOCID: 2CmbNASXbAkqdCbZPzyeCNbX3l4-] found.
Track | CTDB Status
1 | (24/24) Accurately ripped
2 | (24/24) Accurately ripped
3 | (24/24) Accurately ripped
4 | (24/24) Accurately ripped
5 | (24/24) Accurately ripped
6 | (23/24) Accurately ripped
7 | (24/24) Accurately ripped
8 | (24/24) Accurately ripped
9 | (24/24) Accurately ripped
10 | (24/24) Accurately ripped
11 | (24/24) Accurately ripped
12 | (24/24) Accurately ripped
13 | (24/24) Accurately ripped
14 | (24/24) Accurately ripped
15 | (24/24) Accurately ripped
16 | (24/24) Accurately ripped
17 | (24/24) Accurately ripped
18 | (24/24) Accurately ripped
19 | (24/24) Accurately ripped
20 | (24/24) Accurately ripped
21 | (24/24) Accurately ripped
[AccurateRip ID: 0031bb3e-02f4abd3-1a0e3015] found.
Track [ CRC | V2 ] Status
01 [18f6b747|d0cdc9d4] (03+40/43) Accurately ripped
02 [80d57ce0|06633374] (03+40/43) Accurately ripped
03 [3f30672c|b984c0b2] (03+40/43) Accurately ripped
04 [5b259c17|b2c15b3e] (03+40/43) Accurately ripped
05 [0a896220|abdfa76a] (03+40/43) Accurately ripped
06 [39d68697|ff031dae] (03+38/43) Accurately ripped
07 [fc12ac16|247470bc] (03+40/43) Accurately ripped
08 [618ab125|bc65e234] (03+40/43) Accurately ripped
09 [8f7aaa87|87d7ec6a] (03+40/43) Accurately ripped
10 [739c807f|167adf5f] (03+39/42) Accurately ripped
11 [40400c3c|309e2cf0] (03+40/43) Accurately ripped
12 [a65c29ad|5233a1b1] (03+40/43) Accurately ripped
13 [063ebf77|c94636b5] (03+40/43) Accurately ripped
14 [cfb3a485|e02985d3] (03+40/43) Accurately ripped
15 [5c12b474|c7bddcfc] (03+40/43) Accurately ripped
16 [3515b3e9|f97d86d0] (03+40/43) Accurately ripped
17 [2f22e530|5f03f1ae] (03+40/43) Accurately ripped
18 [4d2f6122|fc1d718d] (03+40/43) Accurately ripped
19 [2ac110cd|6eec6459] (03+40/43) Accurately ripped
20 [c018aa5b|a5911fc5] (03+40/43) Accurately ripped
21 [32919d1a|a0e88f2d] (03+40/43) Accurately ripped

Track Peak [ CRC32 ] [W/O NULL] [ LOG ]
-- 99.4 [F1E90263] [645AB984] CRC32
01 73.7 [240A342A] [DDC6DC2C]
02 98.8 [1913DB99] [1533E5CE]
03 68.4 [B830AADA] [BA449B49]
04 97.7 [5D5B841A] [98D313D1]
05 98.8 [FD8AC56A] [4A0FE52B]
06 98.8 [29A03AAF] [603AF68D]
07 98.0 [4D53B2D7] [A5F4FB10]
08 93.2 [396AC4E2] [C3AF963E]
09 98.8 [6D161187] [1D42EAB4]
10 87.7 [7F72C1FF] [C4FA3463]
11 92.4 [6501BAC2] [03FBFDA1]
12 89.5 [ED13DF2A] [AE3004AD]
13 99.4 [8BB50749] [799BDF78]
14 93.0 [A63B8D73] [14139144]
15 63.7 [3E328255] [8A2D0883]
16 92.2 [2F38AE34] [4DC51806]
17 98.8 [B9E3DD3C] [EEA8F7DA]
18 98.8 [8A810C4A] [1C83C433]
19 77.7 [61917C8A] [FC3DC2B1]
20 84.0 [C5A19DE2] [4E7CE55D]
21 97.4 [259C421C] [798CAE14]
[_/su_spoiler]

Back & CD label

imagebam.com imagebam.com
imagebam.com

Download From
 
LMA__TR.EW.1971.2012.DE__CD1.rar
LMA__TR.EW.1971.2012.DE__CD2.rar
LMA__TR.EW.1971.2012.DE__scans.rar
 
Password: www.LosslessMA.net
 
If you encounter broken links or other problem about this publication, please let me know
and write your comment below. I will reply and fix as soon as possible.