Lita Ford – Kiss Me Deadly (1997) {Greatest Hits}

Lita Ford - Kiss Me Deadly (1997) {Greatest Hits}

Lita Ford – Kiss Me Deadly (1997) {Greatest Hits}
EAC Rip | FLAC Image + Cue + Log | Full Scans @300 dpi, JPG
FLAC: 525 MB | Scans: 69 MB | 3% RAR Recovery
Label: BMG Entertainment| Cat#: 74321 512002 | Genre: Glam Metal

Compilation featuring 17 of the hard rockin’former Runaway’s best, including the top 20 hit ‘Kiss MeDeadly’, a cover of Alice Cooper’s ‘Only Women Bleed’ andother tough gems from the ’80s like ‘Back To The Cave’,’Can’t Catch Me’ & ‘Hungry’. A Camden release.

Additional Info:
• Released Date: August 26, 1997
• More Biographical, Career & Discography info: Here

Tracklist:
01. Kiss Me Deadly – 04:02
02. Hungry – 04:56
03. Shot Of Poison – 03:33
04. What Do Ya Know About Love – 03:55
05. Only Women Bleed – 06:03
06. Stiletto – 04:39
07. Lisa – 04:42
08. Bad Boy – 04:00
09. Larger Than Life – 03:54
10. Playin’ With Fire – 04:07
11. Back To The Cave – 04:02
12. Bad Love – 04:21
13. Black Widow – 03:33
14. Fatal Passion – 04:46
15. Cherry Red – 04:11
16. Broken Dreams – 05:13
17. Can’t Catch Me – 03:5

EAC Log
Exact Audio Copy V1.0 beta 3 from 29. August 2011

EAC extraction logfile from 18. February 2015, 21:02

Lita Ford / Kiss Me Deadly

Used drive : HL-DT-STDVDRAM GH22NS40 Adapter: 4 ID: 0

Read mode : Secure
Utilize accurate stream : Yes
Defeat audio cache : Yes
Make use of C2 pointers : No

Read offset correction : 667
Overread into Lead-In and Lead-Out : No
Fill up missing offset samples with silence : Yes
Delete leading and trailing silent blocks : No
Null samples used in CRC calculations : Yes
Used interface : Native Win32 interface for Win NT & 2000

Used output format : User Defined Encoder
Selected bitrate : 1024 kBit/s
Quality : High
Add ID3 tag : No
Command line compressor : C:\Program Files\FLAC\flac.exe
Additional command line options : -V -8 -T “Date=%year%” -T “Genre=%genre%” %source%

TOC of the extracted CD

Track | Start | Length | Start sector | End sector
———————————————————
1 | 0:00.00 | 4:02.47 | 0 | 18196
2 | 4:02.47 | 4:56.05 | 18197 | 40401
3 | 8:58.52 | 3:33.25 | 40402 | 56401
4 | 12:32.02 | 3:55.00 | 56402 | 74026
5 | 16:27.02 | 6:03.15 | 74027 | 101266
6 | 22:30.17 | 4:39.00 | 101267 | 122191
7 | 27:09.17 | 4:42.53 | 122192 | 143394
8 | 31:51.70 | 4:00.20 | 143395 | 161414
9 | 35:52.15 | 3:54.70 | 161415 | 179034
10 | 39:47.10 | 4:07.52 | 179035 | 197611
11 | 43:54.62 | 4:02.73 | 197612 | 215834
12 | 47:57.60 | 4:21.70 | 215835 | 235479
13 | 52:19.55 | 3:33.37 | 235480 | 251491
14 | 55:53.17 | 4:46.20 | 251492 | 272961
15 | 60:39.37 | 4:11.30 | 272962 | 291816
16 | 64:50.67 | 5:13.18 | 291817 | 315309
17 | 70:04.10 | 3:59.27 | 315310 | 333261

Range status and errors

Selected range

Filename I:\Rips\Lita Ford – Kiss Me Deadly.wav

Peak level 97.7 %
Extraction speed 2.0 X
Range quality 99.9 %
Test CRC ABE1D284
Copy CRC ABE1D284
Copy OK

No errors occurred

AccurateRip summary

Track 1 accurately ripped (confidence 2) [AB78DA26] (AR v2)
Track 2 accurately ripped (confidence 2) [052D4DA1] (AR v2)
Track 3 accurately ripped (confidence 2) [2E34B74D] (AR v2)
Track 4 accurately ripped (confidence 2) [4F2026E2] (AR v2)
Track 5 accurately ripped (confidence 2) [74DDDC74] (AR v2)
Track 6 accurately ripped (confidence 2) [DE5BCA31] (AR v2)
Track 7 accurately ripped (confidence 2) [6BF47995] (AR v2)
Track 8 accurately ripped (confidence 2) [59D18EFF] (AR v2)
Track 9 accurately ripped (confidence 2) [82C77A9B] (AR v2)
Track 10 accurately ripped (confidence 2) [A357CE5F] (AR v2)
Track 11 accurately ripped (confidence 2) [807DE694] (AR v2)
Track 12 accurately ripped (confidence 2) [B8AB7EE2] (AR v2)
Track 13 accurately ripped (confidence 2) [3346C216] (AR v2)
Track 14 accurately ripped (confidence 2) [75D8D9AD] (AR v2)
Track 15 accurately ripped (confidence 2) [81129008] (AR v2)
Track 16 accurately ripped (confidence 2) [B69E9217] (AR v2)
Track 17 accurately ripped (confidence 2) [82321554] (AR v2)

All tracks accurately ripped

End of status report

==== Log checksum 63A2C44D25267BAC069CA05A611DCCD645509EB3080EB72FAE20DACD89C79D4D ====

CUETools 2.1.5
[CUETools log; Date: 4/4/2015 9:58:52 PM; Version: 2.1.5]
[CTDB TOCID: 2MWriEB.psPgLiqWZ2.nF5MnJ_Y-] found.
Track | CTDB Status
1 | (1/1) Accurately ripped
2 | (1/1) Accurately ripped
3 | (1/1) Accurately ripped
4 | (1/1) Accurately ripped
5 | (1/1) Accurately ripped
6 | (1/1) Accurately ripped
7 | (1/1) Accurately ripped
8 | (1/1) Accurately ripped
9 | (1/1) Accurately ripped
10 | (1/1) Accurately ripped
11 | (1/1) Accurately ripped
12 | (1/1) Accurately ripped
13 | (1/1) Accurately ripped
14 | (1/1) Accurately ripped
15 | (1/1) Accurately ripped
16 | (1/1) Accurately ripped
17 | (1/1) Accurately ripped
[AccurateRip ID: 002dee36-0244fa17-f9115b11] found.
Track [ CRC | V2 ] Status
01 [594e1b7b|ab78da26] (0+3/7) Accurately ripped
02 [e7aa5723|052d4da1] (0+3/7) Accurately ripped
03 [e7ec2a0e|2e34b74d] (0+3/7) Accurately ripped
04 [fde17838|4f2026e2] (0+3/7) Accurately ripped
05 [cf4dba42|74dddc74] (0+3/7) Accurately ripped
06 [c6f9e2eb|de5bca31] (0+3/7) Accurately ripped
07 [80a9a7cd|6bf47995] (0+3/7) Accurately ripped
08 [fa76174d|59d18eff] (0+3/7) Accurately ripped
09 [bbfc7c58|82c77a9b] (0+3/7) Accurately ripped
10 [a5e7fa77|a357ce5f] (0+3/7) Accurately ripped
11 [4dcacaab|807de694] (0+3/7) Accurately ripped
12 [8d1329f4|b8ab7ee2] (0+3/7) Accurately ripped
13 [6106be97|3346c216] (0+3/7) Accurately ripped
14 [64a94d04|75d8d9ad] (0+3/7) Accurately ripped
15 [04866a91|81129008] (0+3/7) Accurately ripped
16 [1b50d3ee|b69e9217] (0+3/7) Accurately ripped
17 [801fe5e1|82321554] (0+3/7) Accurately ripped
Offsetted by -105:
01 [f86c330b] (4/7) Accurately ripped
02 [6f63a65e] (4/7) Accurately ripped
03 [c5c5cc75] (4/7) Accurately ripped
04 [8713cb14] (4/7) Accurately ripped
05 [1ba9aac7] (4/7) Accurately ripped
06 [f1c722fc] (4/7) Accurately ripped
07 [14b0b07b] (4/7) Accurately ripped
08 [3b4c8a45] (4/7) Accurately ripped
09 [33413df6] (4/7) Accurately ripped
10 [ce5d6633] (4/7) Accurately ripped
11 [1732f8ca] (4/7) Accurately ripped
12 [388b7fac] (4/7) Accurately ripped
13 [03b17f43] (4/7) Accurately ripped
14 [ee11c00a] (4/7) Accurately ripped
15 [f36da5d4] (4/7) Accurately ripped
16 [8eebee5e] (4/7) Accurately ripped
17 [688f84f6] (4/7) Accurately ripped

Track Peak [ CRC32 ] [W/O NULL] [ LOG ]
— 97.7 [ABE1D284] [9B042505] CRC32
01 97.7 [601BD104] [118B9E5C]
02 97.7 [8F404BD9] [F5D3D4B7]
03 97.7 [FD0FFDD6] [750104E0]
04 97.7 [A2D1358A] [74846BD6]
05 97.7 [4B941799] [EA4F6828]
06 97.7 [E776CC60] [62C28F90]
07 97.7 [7E71964A] [66058CD5]
08 97.7 [1AC54777] [511F9F8B]
09 97.7 [477DF067] [5F966D9C]
10 97.7 [549D2FA3] [024200B3]
11 97.7 [BA9CE8C3] [C90DCE9D]
12 97.7 [984952AA] [AC759609]
13 97.7 [8041E9D7] [8ED50CBE]
14 97.7 [9B8E1297] [49B16AEC]
15 97.7 [845CEF56] [6B477532]
16 97.7 [C395E135] [D1C02086]
17 97.7 [FC7E1149] [D211A954]

Back & CD label

imagebam.com imagebam.com

Download From
 
LMA__LF.KMD.1997.rar
LMA__LF.KMD.1997__scans.rar
 
Password: www.LosslessMA.net
 
If you encounter broken links or other problem about this publication, please let me know
and write your comment below. I will reply and fix as soon as possible.