Michael Schenker Group – The Best Of The Michael Schenker Group 1980-1984 (2008)

Michael Schenker Group - The Best Of The Michael Schenker Group 1980-1984 (2008)

Michael Schenker Group – The Best Of The Michael Schenker Group 1980-1984 (2008)
EAC Rip | FLAC Image + Cue + Log | Full Scans @600 dpi, JPG
FLAC: 570 MB | Scans: 28.9 MB | 3% RAR Recovery
Label: Chrysalis / EMI | Cat#: 50999 2 34750 2 1 | Genre: Hard Rock

Apart from his classic work with UFO, from a pure heavy metal and hard rock standpoint, most metalheads consider Michael Schenker’s 1980-1984 solo period to be his high-water mark. And after checking out the 2008 compilation Best of the Michael Schenker Group 1980-1984, you’ll understand why. After splitting from the aforementioned UFO, it appeared as though Schenker was on a mission to show the world that his exit from the band would not affect his playing in the slightest. And as heard on such tracks as “Armed and Ready,” and a pair of instrumentals — “Captain Nemo” and a live version of “Into the Arena” — this rang true. And you’ve got to love “Attack of the Mad Axeman,” which from a song title and lyrical standpoint, would have fit perfectly on the fictional Spinal Tap opus Smell the Glove. You even get a nod to Schenker’s UFO days as well, with a fine live reading of “Doctor Doctor.” While newcomers to the wonders of Schenker’s six-string wizardry would probably be better off starting with a UFO comp or Strangers in the Night, Best of the Michael Schenker Group 1980-1984 isn’t too shabby of a lead-off selection, either.

Reviewed by Allmusic

Additional Info:
• Released Date: September 23, 2008

Tracklist:
01. Armed And Ready – 04:08
02. Cry For The Nations (Radio Edit) – 03:34
03. Lost Horizons – 07:08
04. Into The Arena (Live B-Side) – 04:15
05. Are You Ready To Rock – 03:27
06. Attack Of The Mad Axeman – 04:20
07. On And On – 04:45
08. Victim Of Illusion (Live) – 05:16
09. Assault Attack – 04:19
10. Dancer – 04:43
11. Girl From Uptown (B-Side) – 05:22
12. Desert Song – 05:52
13. Rock My Nights Away – 04:37
14. Captain Nemo (Original Mix) – 03:21
15. Rock Will Never Die – 05:36
16. Doctor Doctor (Live) – 07:37

EAC Log
Exact Audio Copy V0.99 prebeta 5 from 4. May 2009

EAC extraction logfile from 19. April 2014, 14:11

Michael Schenker Group / The Best Of The Michael Schenker Group (’80-’84)

Used drive : hp CDDVDW SH-216BB Adapter: 0 ID: 0

Read mode : Secure
Utilize accurate stream : Yes
Defeat audio cache : Yes
Make use of C2 pointers : No

Read offset correction : 6
Overread into Lead-In and Lead-Out : No
Fill up missing offset samples with silence : Yes
Delete leading and trailing silent blocks : No
Null samples used in CRC calculations : Yes
Used interface : Native Win32 interface for Win NT & 2000

Used output format : Monkey’s Audio Lossless Encoder
Selected bitrate : High Lossless Compression
Quality : High
Add ID3 tag : No
Command line compressor : C:\Program Files (x86)\Monkey’s Audio\MAC.exe
Additional command line options : -v

TOC of the extracted CD

Track | Start | Length | Start sector | End sector
———————————————————
1 | 0:00.00 | 4:08.25 | 0 | 18624
2 | 4:08.25 | 3:34.60 | 18625 | 34734
3 | 7:43.10 | 7:08.35 | 34735 | 66869
4 | 14:51.45 | 4:15.56 | 66870 | 86050
5 | 19:07.26 | 3:27.61 | 86051 | 101636
6 | 22:35.12 | 4:20.69 | 101637 | 121205
7 | 26:56.06 | 4:45.71 | 121206 | 142651
8 | 31:42.02 | 5:16.03 | 142652 | 166354
9 | 36:58.05 | 4:19.51 | 166355 | 185830
10 | 41:17.56 | 4:43.62 | 185831 | 207117
11 | 46:01.43 | 5:22.19 | 207118 | 231286
12 | 51:23.62 | 5:52.11 | 231287 | 257697
13 | 57:15.73 | 4:37.49 | 257698 | 278521
14 | 61:53.47 | 3:21.49 | 278522 | 293645
15 | 65:15.21 | 5:36.32 | 293646 | 318877
16 | 70:51.53 | 7:37.25 | 318878 | 353177

Range status and errors

Selected range

Filename C:\Desktop\Michael Schenker Group – The Best Of The Michael Schenker Group (’80-’84).wav

Peak level 100.0 %
Range quality 100.0 %
Test CRC AF6BEA3F
Copy CRC AF6BEA3F
Copy OK

No errors occurred

AccurateRip summary

Track 1 cannot be verified as accurate (confidence 3) [D6A05270], AccurateRip returned [C4C7BCF1]
Track 2 cannot be verified as accurate (confidence 3) [18EEE820], AccurateRip returned [0126706A]
Track 3 cannot be verified as accurate (confidence 3) [AD8FC193], AccurateRip returned [9DAFA5F9]
Track 4 cannot be verified as accurate (confidence 3) [F070FB1F], AccurateRip returned [6D41AB49]
Track 5 cannot be verified as accurate (confidence 3) [29FCD716], AccurateRip returned [AADBD134]
Track 6 cannot be verified as accurate (confidence 3) [77B8D2E1], AccurateRip returned [131ED9E3]
Track 7 cannot be verified as accurate (confidence 3) [A6733161], AccurateRip returned [9CAA95BE]
Track 8 cannot be verified as accurate (confidence 3) [7A049CD7], AccurateRip returned [9E638FE0]
Track 9 cannot be verified as accurate (confidence 3) [C4FE9E20], AccurateRip returned [49810561]
Track 10 cannot be verified as accurate (confidence 3) [DA2CCB1F], AccurateRip returned [99309ABD]
Track 11 cannot be verified as accurate (confidence 3) [C69379C6], AccurateRip returned [518124FF]
Track 12 cannot be verified as accurate (confidence 3) [387F77A7], AccurateRip returned [418050E9]
Track 13 cannot be verified as accurate (confidence 3) [3DDA152A], AccurateRip returned [2F5B20A6]
Track 14 cannot be verified as accurate (confidence 3) [313C0E7C], AccurateRip returned [EDF68E83]
Track 15 cannot be verified as accurate (confidence 3) [42878CE3], AccurateRip returned [8936BFA0]
Track 16 cannot be verified as accurate (confidence 3) [57992855], AccurateRip returned [30E5CE42]

No tracks could be verified as accurate
You may have a different pressing from the one(s) in the database

End of status report

CUETools 2.1.5
[CUETools log; Date: 4/15/2015 7:12:26 PM; Version: 2.1.5]
[CTDB TOCID: hBX8QIFQ.Q2r_zJ04_81p1BlCAA-] found.
Track | CTDB Status
1 | (7/7) Accurately ripped
2 | (7/7) Accurately ripped
3 | (7/7) Accurately ripped
4 | (7/7) Accurately ripped
5 | (7/7) Accurately ripped
6 | (7/7) Accurately ripped
7 | (7/7) Accurately ripped
8 | (7/7) Accurately ripped
9 | (7/7) Accurately ripped
10 | (7/7) Accurately ripped
11 | (7/7) Accurately ripped
12 | (7/7) Accurately ripped
13 | (7/7) Accurately ripped
14 | (7/7) Accurately ripped
15 | (7/7) Accurately ripped
16 | (7/7) Accurately ripped
[AccurateRip ID: 002bb4a1-021013c0-ea126510] found.
Track [ CRC | V2 ] Status
01 [d6a05270|c4c7bcf1] (0+5/5) Accurately ripped
02 [18eee820|0126706a] (0+5/5) Accurately ripped
03 [ad8fc193|9dafa5f9] (0+5/5) Accurately ripped
04 [f070fb1f|6d41ab49] (0+5/5) Accurately ripped
05 [29fcd716|aadbd134] (0+5/5) Accurately ripped
06 [77b8d2e1|131ed9e3] (0+5/5) Accurately ripped
07 [a6733161|9caa95be] (0+5/5) Accurately ripped
08 [7a049cd7|9e638fe0] (0+5/5) Accurately ripped
09 [c4fe9e20|49810561] (0+5/5) Accurately ripped
10 [da2ccb1f|99309abd] (0+5/5) Accurately ripped
11 [c69379c6|518124ff] (0+5/5) Accurately ripped
12 [387f77a7|418050e9] (0+5/5) Accurately ripped
13 [3dda152a|2f5b20a6] (0+5/5) Accurately ripped
14 [313c0e7c|edf68e83] (0+5/5) Accurately ripped
15 [42878ce3|8936bfa0] (0+5/5) Accurately ripped
16 [57992855|30e5ce42] (0+5/5) Accurately ripped

Track Peak [ CRC32 ] [W/O NULL] [ LOG ]
— 100.0 [AF6BEA3F] [A02C96F9] CRC32
01 99.2 [BF69198C] [9F0DD8B0]
02 98.4 [3F24DEBD] [D6CA86A3]
03 99.1 [571B7FA8] [2D059B4D]
04 98.8 [79EE5BE4] [32647E12]
05 99.1 [CCE11D41] [A706124B]
06 100.0 [10A2D109] [C3046760]
07 99.0 [85EDCB30] [BD9BB0B8]
08 100.0 [D433F54F] [A0B28FFC]
09 98.5 [4E5888F6] [11016058]
10 97.2 [74803A2B] [FB836A68]
11 100.0 [B8025CF8] [97F26EC6]
12 98.9 [C34512A5] [661105AF]
13 99.2 [F7C6CED8] [203194C1]
14 99.0 [43DDCAA8] [B2C507C5]
15 99.1 [77959773] [DECDC7CE]
16 99.1 [E4D89015] [E3694F56]

Back & CD label

imagebam.com imagebam.com

Download From
 
LMA__MSG.TBOMSG.1980-1984.2008.rar
LMA__MSG.TBOMSG.1980-1984.2008__Scans.rar
 
Password: www.LosslessMA.net
 
If you encounter broken links or other problem about this publication, please let me know
and write your comment below. I will reply and fix as soon as possible.