Van Der Graaf Generator – 7 Albums (1970 – 1977) {Remastered, Japan, Mini LP, Platinum SHM-CD}

Van Der Graaf Generator - 7 Albums (1970 - 1977) {Remastered, Japan, Mini LP, Platinum SHM-CD}

Van Der Graaf Generator – 7 Albums (1970 – 1977) {Remastered, Japan, Mini LP, Platinum SHM-CD}
EAC Rip | 7xCD | FLAC Image + Cue + Log | Full Scans @300 dpi, PNG, Included
FLAC: 3.89 GB | 3% RAR Recovery
Label: Universal Music Japan | Cat#: UICY-40134/40 | Genre: Progressive Rock

An eye-opening trip to San Francisco’s Haight-Ashbury during the summer of 1967 inspired British-born drummer Chris Judge Smith to compose a list of possible names for the rock group he wished to form. Upon his return to Manchester University, he began performing with singer/songwriter Peter Hammill and keyboardist Nick Peame; employing one of the names from Judge Smith’s list, the band dubbed itself Van der Graaf Generator (after a machine which creates static electricity), eventually earning an intense cult following as one of the era’s preeminent art rock groups.

Despite the early involvement of Judge Smith and Peame, the group found true success as a vehicle for Hammill, whose dark, existentialist lyrics made him the focus of considerable attention. After the release of the 1968 single “People You Were Going To,” Judge Smith left Van der Graaf Generator, which by then consisted of Hammill, keyboardist Hugh Banton, bassist Keith Ellis and drummer Guy Evans. The group soon split, and in 1968 Hammill entered the studio, ostensibly to record a solo album; however, he ultimately called in his ex-bandmates for assistance, and when The Aerosol Grey Machine appeared, it did so under the Van der Graaf Generator name.

Although Ellis was replaced by Nic Potter and woodwind player David Jackson, the reconstituted group continued on for 1969’s Least We Can Do Is Wave to Each Other. After 1970’s H to He, Who Am the Only One, Potter departed; the Generator recorded one more LP, 1971’s Pawn Hearts, before Hammill left for a solo career, putting an end to the group. After five solo efforts, however, Hammill again re-formed Van der Graaf Generator in 1975 for Godbluff. Following a pair of 1976 albums, Still Life and World Record, Banton and Jackson exited; as simply Van der Graaf, the band recorded The Quiet Zone with new violinist Graham Smith. After a 1978 live set, Vital, the group officially disbanded, although most members made appearances on Hammill’s subsequent solo records.

Twice during the ’90s, Van der Graaf reunited for one-off gigs, and in 2005 released a reunion album, Present. Without Jackson, the trio of Hammill, Banton, and Evans recorded Trisector, which appeared in 2008. They appeared in concert frequently during 2009, and released another studio album, A Grounding in Numbers, in 2011. An album of studio jams and outtakes, titled ALT, followed one year later.

Reviewed by Allmusic

Additional Info:
• Original Released Date: 1970-1977
• SHM-CD Released Date: 2015
• More Biographical, Career & Discography info: Here

Disc Listing:

The Least We Can Do Is Wave to Each Other (1970)
The Least We Can Do Is Wave to Each Other (1970)

The Least We Can Do Is Wave to Each Other (1970)
EAC Rip | FLAC Image + Cue + Log | Full Scans @300 dpi, PNG
Label: Universal Music Japan | Cat#: UICY-40134 | Genre: Progressive Rock

Tracklist:
01. Darkness (11/11) – 07:27
02. Refugees – 06:22
03. White Hammer – 08:18
04. Whatever Would Robert Have Said? – 06:07
05. Out Of My Book – 04:07
06. After The Flood – 11:37
Bonus Tracks
07. Boat Of Millions Of Years – 03:54
08. Refugees (Single Version) – 05:27

EAC Log

Exact Audio Copy V1.0 beta 4 from 7. December 2014

EAC extraction logfile from 8. April 2015, 17:09

Van Der Graaf Generator / The Least We Can Do Is Wave To Each Other PT-SHM

Used drive : PLEXTOR BD-R PX-B950SA Adapter: 1 ID: 1

Read mode : Secure
Utilize accurate stream : Yes
Defeat audio cache : Yes
Make use of C2 pointers : No

Read offset correction : 6
Overread into Lead-In and Lead-Out : No
Fill up missing offset samples with silence : Yes
Delete leading and trailing silent blocks : No
Null samples used in CRC calculations : Yes
Used interface : Native Win32 interface for Win NT & 2000

Used output format : Internal WAV Routines
Sample format : 44.100 Hz; 16 Bit; Stereo

TOC of the extracted CD

Track | Start | Length | Start sector | End sector
---------------------------------------------------------
1 | 0:00.00 | 7:27.47 | 0 | 33571
2 | 7:27.47 | 6:22.35 | 33572 | 62256
3 | 13:50.07 | 8:18.18 | 62257 | 99624
4 | 22:08.25 | 6:07.00 | 99625 | 127149
5 | 28:15.25 | 4:07.72 | 127150 | 145746
6 | 32:23.22 | 11:37.03 | 145747 | 198024
7 | 44:00.25 | 3:54.57 | 198025 | 215631
8 | 47:55.07 | 5:27.28 | 215632 | 240184

Range status and errors

Selected range

Filename C:\Users\Van Der Graaf Generator\1970 Least We Can Do Is Wave To Each Other (Mini LP PT-SHM Universal Japan 2015)\Van Der Graaf Generator - The Least We Can Do Is Wave To Each Other PT-SHM.wav

Peak level 98.3 %
Extraction speed 3.2 X
Range quality 99.9 %
Test CRC 0AD9D23A
Copy CRC 0AD9D23A
Copy OK

No errors occurred

AccurateRip summary

Track 1 not present in database
Track 2 not present in database
Track 3 not present in database
Track 4 not present in database
Track 5 not present in database
Track 6 not present in database
Track 7 not present in database
Track 8 not present in database

None of the tracks are present in the AccurateRip database

End of status report

---- CUETools DB Plugin V2.1.4

[CTDB TOCID: Eg0YoRMcc4CUKlxu3dzGifcfRSs-] found
Submit result: Eg0YoRMcc4CUKlxu3dzGifcfRSs- has been confirmed
Track | CTDB Status
1 | (1/1) Accurately ripped
2 | (1/1) Accurately ripped
3 | (1/1) Accurately ripped
4 | (1/1) Accurately ripped
5 | (1/1) Accurately ripped
6 | (1/1) Accurately ripped
7 | (1/1) Accurately ripped
8 | (1/1) Accurately ripped

==== Log checksum 84B50C154FF08C7CF1C4E26E5251D90911499A0C0AB17565532E4BF8869AECBD ====
[_/su_spoiler]

CUETools 2.1.5

[CUETools log; Date: 4/17/2015 7:39:34 AM; Version: 2.1.5]
[CTDB TOCID: Eg0YoRMcc4CUKlxu3dzGifcfRSs-] found.
Track | CTDB Status
1 | (2/2) Accurately ripped
2 | (2/2) Accurately ripped
3 | (2/2) Accurately ripped
4 | (2/2) Accurately ripped
5 | (2/2) Accurately ripped
6 | (2/2) Accurately ripped
7 | (2/2) Accurately ripped
8 | (2/2) Accurately ripped
[AccurateRip ID: 00111f91-00717518-770c8208] disk not present in database.

Track Peak [ CRC32 ] [W/O NULL] [ LOG ]
-- 98.3 [0AD9D23A] [56A2F6B1] CRC32
01 98.2 [D5555CD6] [0BB7015B]
02 75.0 [1E4F2645] [732CBA79]
03 98.3 [6588E20F] [784BFF71]
04 76.0 [798D2DCB] [BD8E409A]
05 64.7 [1B9E606A] [DA92ECA5]
06 86.3 [A9473144] [34F3B09D]
07 70.0 [A04A0916] [608C0BAF]
08 93.0 [76365FA1] [CC0E357D]
[_/su_spoiler]

H To He Who Am The Only One (1970)
H To He Who Am The Only One (1970)

H To He Who Am The Only One (1970)
EAC Rip | FLAC Image + Cue + Log | Full Scans @300 dpi, PNG
Label: Universal Music Japan | Cat#: UICY-40135 | Genre: Progressive Rock

Tracklist:
01. Killer – 08:24
02. House With No Door – 06:38
03. The Emperor In His War Roomb – 08:19
04. Lost – 11:18
05. Pioneers Over C – 12:51
Bonus Tracks
06. Squid 1 / Squid 2 / Octopus (Recorded Trident Studios, 1971) – 15:24
07. The Emperor In His War Room (First Version / Recorded Trident Studios, 1970) – 08:50

EAC Log

Exact Audio Copy V1.0 beta 4 from 7. December 2014

EAC extraction logfile from 7. April 2015, 20:43

Van Der Graaf Generator / H To He Who Am The Only One PT-SHM

Used drive : PLEXTOR BD-R PX-B950SA Adapter: 1 ID: 1

Read mode : Secure
Utilize accurate stream : Yes
Defeat audio cache : Yes
Make use of C2 pointers : No

Read offset correction : 6
Overread into Lead-In and Lead-Out : No
Fill up missing offset samples with silence : Yes
Delete leading and trailing silent blocks : No
Null samples used in CRC calculations : Yes
Used interface : Native Win32 interface for Win NT & 2000

Used output format : Internal WAV Routines
Sample format : 44.100 Hz; 16 Bit; Stereo

TOC of the extracted CD

Track | Start | Length | Start sector | End sector
---------------------------------------------------------
1 | 0:00.00 | 8:24.55 | 0 | 37854
2 | 8:24.55 | 6:38.05 | 37855 | 67709
3 | 15:02.60 | 8:19.37 | 67710 | 105171
4 | 23:22.22 | 11:18.33 | 105172 | 156054
5 | 34:40.55 | 12:51.50 | 156055 | 213929
6 | 47:32.30 | 15:24.12 | 213930 | 283241
7 | 62:56.42 | 8:50.73 | 283242 | 323064

Range status and errors

Selected range

Filename C:\Users\Van Der Graaf Generator\1970 H To He Who Am The Only One (Mini LP PT-SHM Universal Japan 2015)\Van Der Graaf Generator - H To He Who Am The Only One PT-SHM.wav

Peak level 93.9 %
Extraction speed 8.3 X
Range quality 100.0 %
Test CRC 5DC0AAB5
Copy CRC 5DC0AAB5
Copy OK

No errors occurred

AccurateRip summary

Track 1 not present in database
Track 2 not present in database
Track 3 not present in database
Track 4 not present in database
Track 5 not present in database
Track 6 not present in database
Track 7 not present in database

None of the tracks are present in the AccurateRip database

End of status report

---- CUETools DB Plugin V2.1.4

[CTDB TOCID: CgOoq.ekjWp5LUlLby5JMJQPEB8-] disk not present in database
Submit result: CgOoq.ekjWp5LUlLby5JMJQPEB8- has been uploaded

==== Log checksum 1A46A069E4CBC31F14ED5EBDAAA4288F279667B6A7032A717A0906FE021D63EF ====
[_/su_spoiler]

CUETools 2.1.5

[CUETools log; Date: 4/17/2015 7:39:29 AM; Version: 2.1.5]
[CTDB TOCID: CgOoq.ekjWp5LUlLby5JMJQPEB8-] found.
Track | CTDB Status
1 | (4/4) Accurately ripped
2 | (4/4) Accurately ripped
3 | (4/4) Accurately ripped
4 | (4/4) Accurately ripped
5 | (4/4) Accurately ripped
6 | (4/4) Accurately ripped
7 | (4/4) Accurately ripped
[AccurateRip ID: 00121cd5-006fdb26-5b10d307] disk not present in database.

Track Peak [ CRC32 ] [W/O NULL] [ LOG ]
-- 93.9 [5DC0AAB5] [BFEB4AB0] CRC32
01 93.2 [804F12CA] [95B8C2D7]
02 68.0 [8BB75C18] [C822689A]
03 93.9 [68E3C8D9] [484D4423]
04 90.2 [62FCFEB1] [74163E48]
05 86.5 [9EC8A7C8] [B3A53D05]
06 55.6 [2A9F6434] [7829EAC0]
07 56.6 [725DA8D5] [0EC84049]
[_/su_spoiler]

Pawn Hearts (1971)
Pawn Hearts (1971)

Pawn Hearts (1971)
EAC Rip | FLAC Image + Cue + Log | Full Scans @300 dpi, PNG
Label: Universal Music Japan | Cat#: UICY-40136 | Genre: Progressive Rock

Tracklist:
01. Lemmings (Including Cog) – 11:39
02. Man-Erg – 10:26
03. A Plague Of Lighthouse Keepers – 23:14
Bonus Tracks
04. Theme One (Original Mix / Instrumental) – 03:15
05. W (First Version) – 05;02
06. Angle Of Incidents (Instrumental) – 04:48
07. Ponker’s Theme (Instrumental) 01:28
08. Diminutions (Instrumental) 05:59

EAC Log

Exact Audio Copy V1.0 beta 4 from 7. December 2014

EAC extraction logfile from 7. April 2015, 20:06

Van Der Graaf Generator / Pawn Hearts PT-SHM

Used drive : PLEXTOR BD-R PX-B950SA Adapter: 1 ID: 1

Read mode : Secure
Utilize accurate stream : Yes
Defeat audio cache : Yes
Make use of C2 pointers : No

Read offset correction : 6
Overread into Lead-In and Lead-Out : No
Fill up missing offset samples with silence : Yes
Delete leading and trailing silent blocks : No
Null samples used in CRC calculations : Yes
Used interface : Native Win32 interface for Win NT & 2000

Used output format : Internal WAV Routines
Sample format : 44.100 Hz; 16 Bit; Stereo

TOC of the extracted CD

Track | Start | Length | Start sector | End sector
---------------------------------------------------------
1 | 0:00.00 | 11:39.60 | 0 | 52484
2 | 11:39.60 | 10:26.00 | 52485 | 99434
3 | 22:05.60 | 23:14.55 | 99435 | 204039
4 | 45:20.40 | 3:15.42 | 204040 | 218706
5 | 48:36.07 | 5:02.70 | 218707 | 241426
6 | 53:39.02 | 4:48.23 | 241427 | 263049
7 | 58:27.25 | 1:28.35 | 263050 | 269684
8 | 59:55.60 | 5:59.50 | 269685 | 296659

Range status and errors

Selected range

Filename C:\Users\Van Der Graaf Generator\1971 Pawn Hearts (Mini LP PT-SHM Universal Japan 2015)\Van Der Graaf Generator - Pawn Hearts PT-SHM.wav

Peak level 98.5 %
Extraction speed 8.0 X
Range quality 99.9 %
Test CRC 4FC4FFB0
Copy CRC 4FC4FFB0
Copy OK

No errors occurred

AccurateRip summary

Track 1 not present in database
Track 2 not present in database
Track 3 not present in database
Track 4 not present in database
Track 5 not present in database
Track 6 not present in database
Track 7 not present in database
Track 8 not present in database

None of the tracks are present in the AccurateRip database

End of status report

---- CUETools DB Plugin V2.1.4

[CTDB TOCID: r6VBE.0RJJJD9Fe5RcphCNiHGug-] found
Submit result: r6VBE.0RJJJD9Fe5RcphCNiHGug- has been confirmed
Track | CTDB Status
1 | (1/1) Accurately ripped
2 | (1/1) Accurately ripped
3 | (1/1) Accurately ripped
4 | (1/1) Accurately ripped
5 | (1/1) Accurately ripped
6 | (1/1) Accurately ripped
7 | (1/1) Accurately ripped
8 | (1/1) Accurately ripped

==== Log checksum F4B95EC91BD5BDF2AF2EF740E45C8CA30FE3060DD97E189A1FF9A8C7C174F3D0 ====
[_/su_spoiler]

CUETools 2.1.5

[CUETools log; Date: 4/17/2015 7:39:39 AM; Version: 2.1.5]
[CTDB TOCID: r6VBE.0RJJJD9Fe5RcphCNiHGug-] found.
Track | CTDB Status
1 | (3/3) Accurately ripped
2 | (3/3) Accurately ripped
3 | (3/3) Accurately ripped
4 | (3/3) Accurately ripped
5 | (3/3) Accurately ripped
6 | (3/3) Accurately ripped
7 | (3/3) Accurately ripped
8 | (3/3) Accurately ripped
[AccurateRip ID: 00191bb1-009f275f-690f7308] disk not present in database.

Track Peak [ CRC32 ] [W/O NULL] [ LOG ]
-- 98.5 [4FC4FFB0] [368A6FA9] CRC32
01 78.9 [1B79CAA6] [AB9724C5]
02 80.3 [7A5D8F13] [6EE32A75]
03 98.5 [D8DB441A] [F839C5CC]
04 45.7 [D453DF66] [79F2E597]
05 41.8 [141ABB8B] [D8158903]
06 44.4 [62B7FC9B] [92DCE2CA]
07 44.7 [B34ACFB3] [62C27524]
08 42.4 [C3A92330] [A6119E0E]
[_/su_spoiler]

Godbluff (1975)
Godbluff (1975)

Godbluff (1975)
EAC Rip | FLAC Image + Cue + Log | Full Scans @300 dpi, PNG
Label: Universal Music Japan | Cat#: UICY-40137 | Genre: Progressive Rock

Tracklist:
01. The Undercover Man – 07:34
02. Scorched Earth – 09:42
03. Arrow – 09:47
04. The Sleepwalkers – 10:41
Bonus Tracks
05. Forsaken Gardens (Live / Ex-Bootleg) – 07:57
06. A Louse Is Not A Home (Live / Ex-Bootleg) – 12:47

EAC Log

Exact Audio Copy V1.0 beta 4 from 7. December 2014

EAC extraction logfile from 6. April 2015, 20:16

Van Der Graaf Generator / Godbluff PT-SHM

Used drive : PLEXTOR BD-R PX-B950SA Adapter: 1 ID: 1

Read mode : Secure
Utilize accurate stream : Yes
Defeat audio cache : Yes
Make use of C2 pointers : No

Read offset correction : 6
Overread into Lead-In and Lead-Out : No
Fill up missing offset samples with silence : Yes
Delete leading and trailing silent blocks : No
Null samples used in CRC calculations : Yes
Used interface : Native Win32 interface for Win NT & 2000

Used output format : Internal WAV Routines
Sample format : 44.100 Hz; 16 Bit; Stereo

TOC of the extracted CD

Track | Start | Length | Start sector | End sector
---------------------------------------------------------
1 | 0:00.00 | 7:34.07 | 0 | 34056
2 | 7:34.07 | 9:42.73 | 34057 | 77779
3 | 17:17.05 | 9:47.25 | 77780 | 121829
4 | 27:04.30 | 10:41.55 | 121830 | 169959
5 | 37:46.10 | 7:57.47 | 169960 | 205781
6 | 45:43.57 | 12:47.58 | 205782 | 263364

Range status and errors

Selected range

Filename C:\Users\Van Der Graaf Generator\1975 Godbluff (Mini LP PT-SHM Universal Japan 2015)\Van Der Graaf Generator - Godbluff PT-SHM.wav

Peak level 97.3 %
Extraction speed 7.2 X
Range quality 100.0 %
Test CRC 6546A9F9
Copy CRC 6546A9F9
Copy OK

No errors occurred

AccurateRip summary

Track 1 not present in database
Track 2 not present in database
Track 3 not present in database
Track 4 not present in database
Track 5 not present in database
Track 6 not present in database

None of the tracks are present in the AccurateRip database

End of status report

---- CUETools DB Plugin V2.1.4

[CTDB TOCID: WXyuc3s0rOI_LLolDnN2oaNqFWM-] disk not present in database
Submit result: WXyuc3s0rOI_LLolDnN2oaNqFWM- has been uploaded

==== Log checksum D6BDFFE96B89F42840156653511ECB3C8C6D023481F9A0397A6B6C6DD13F93A8 ====
[_/su_spoiler]

CUETools 2.1.5

[CUETools log; Date: 4/17/2015 7:39:44 AM; Version: 2.1.5]
[CTDB TOCID: WXyuc3s0rOI_LLolDnN2oaNqFWM-] found.
Track | CTDB Status
1 | (2/2) Accurately ripped
2 | (2/2) Accurately ripped
3 | (2/2) Accurately ripped
4 | (2/2) Accurately ripped
5 | (2/2) Accurately ripped
6 | (2/2) Accurately ripped
[AccurateRip ID: 000d5146-0047f916-510db706] disk not present in database.

Track Peak [ CRC32 ] [W/O NULL] [ LOG ]
-- 97.3 [6546A9F9] [2B22F280] CRC32
01 85.1 [DD4E5082] [2B875717]
02 87.4 [490127D4] [9A843AF1]
03 80.2 [85E7C955] [2FEBE910]
04 97.3 [4B3A9A47] [F64C5E6A]
05 57.0 [726A3440] [AC49DC0D]
06 56.8 [80A8A354] [9CD69726]
[_/su_spoiler]

Still Life (1976)
Still Life (1976)

Still Life (1976)
EAC Rip | FLAC Image + Cue + Log | Full Scans @300 dpi, PNG
Label: Universal Music Japan | Cat#: UICY-40138 | Genre: Progressive Rock

Tracklist:
01. Pilgrims – 07:12
02. Still Life – 07:23
03. La Rossa – 09:51
04. My Room (Waiting For Wonderland) – 08:00
05. Childlike Faith In Childhood’s End – 12:31
Bonus Track
06. Gog (Live / Ex-Bootleg) – 10:30

EAC Log

Exact Audio Copy V1.0 beta 4 from 7. December 2014

EAC extraction logfile from 6. April 2015, 19:49

Van Der Graaf Generator / Still Life PT-SHM

Used drive : PLEXTOR BD-R PX-B950SA Adapter: 1 ID: 1

Read mode : Secure
Utilize accurate stream : Yes
Defeat audio cache : Yes
Make use of C2 pointers : No

Read offset correction : 6
Overread into Lead-In and Lead-Out : No
Fill up missing offset samples with silence : Yes
Delete leading and trailing silent blocks : No
Null samples used in CRC calculations : Yes
Used interface : Native Win32 interface for Win NT & 2000

Used output format : Internal WAV Routines
Sample format : 44.100 Hz; 16 Bit; Stereo

TOC of the extracted CD

Track | Start | Length | Start sector | End sector
---------------------------------------------------------
1 | 0:00.00 | 7:12.40 | 0 | 32439
2 | 7:12.40 | 7:23.42 | 32440 | 65706
3 | 14:36.07 | 9:51.45 | 65707 | 110076
4 | 24:27.52 | 8:00.35 | 110077 | 146111
5 | 32:28.12 | 12:31.38 | 146112 | 202474
6 | 44:59.50 | 10:30.02 | 202475 | 249726

Range status and errors

Selected range

Filename C:\Users\Van Der Graaf Generator\1976 Still Life (Mini LP PT-SHM Universal Japan 2015)\Van Der Graaf Generator - Still Life PT-SHM.wav

Peak level 97.3 %
Extraction speed 7.2 X
Range quality 100.0 %
Test CRC BB34ED7A
Copy CRC BB34ED7A
Copy OK

No errors occurred

AccurateRip summary

Track 1 not present in database
Track 2 not present in database
Track 3 not present in database
Track 4 not present in database
Track 5 not present in database
Track 6 not present in database

None of the tracks are present in the AccurateRip database

End of status report

---- CUETools DB Plugin V2.1.4

[CTDB TOCID: AvCGp0.j_jKbbi_BqtFvTuLrTKU-] disk not present in database
Submit result: AvCGp0.j_jKbbi_BqtFvTuLrTKU- has been uploaded

==== Log checksum 529748D73532B0E836742E849772D3A0D582B7CCE67BA90073C7F7BF47D4B40A ====
[_/su_spoiler]

CUETools 2.1.5

[CUETools log; Date: 4/17/2015 7:39:49 AM; Version: 2.1.5]
[CTDB TOCID: AvCGp0.j_jKbbi_BqtFvTuLrTKU-] found.
Track | CTDB Status
1 | (2/2) Accurately ripped
2 | (2/2) Accurately ripped
3 | (2/2) Accurately ripped
4 | (2/2) Accurately ripped
5 | (2/2) Accurately ripped
6 | (2/2) Accurately ripped
[AccurateRip ID: 000c4e8a-00431321-510d0106] disk not present in database.

Track Peak [ CRC32 ] [W/O NULL] [ LOG ]
-- 97.3 [BB34ED7A] [AF9886C2] CRC32
01 90.8 [B3A2FCCF] [A67E4132]
02 73.8 [573E9F57] [E1D6E9A9]
03 97.3 [483F01FD] [09D06666]
04 87.2 [25FE76F5] [F1714CFA]
05 88.3 [5239EB53] [62FF276F]
06 53.2 [36D2CEF2] [87B7C0C6]
[_/su_spoiler]

World Record (1976)
World Record (1976)

World Record (1976)
EAC Rip | FLAC Image + Cue + Log | Full Scans @300 dpi, PNG
Label: Universal Music Japan | Cat#: UICY-40139 | Genre: Progressive Rock

Tracklist:
01. When She Comes – 08:04
02. A Place To Survive – 10:04
03. Masks – 07:02
04. Meurglys III (The Songwriter’s Guild) – 20:49
05. Wondering – 06:42
Bonus Tracks
06. When She Comes (BBC Sessions) – 08:13
07. Masks (BBC Sessions) – 07:24

EAC Log

Exact Audio Copy V1.0 beta 4 from 7. December 2014

EAC extraction logfile from 6. April 2015, 19:19

Van Der Graaf Generator / World Record PT-SHM

Used drive : PLEXTOR BD-R PX-B950SA Adapter: 1 ID: 1

Read mode : Secure
Utilize accurate stream : Yes
Defeat audio cache : Yes
Make use of C2 pointers : No

Read offset correction : 6
Overread into Lead-In and Lead-Out : No
Fill up missing offset samples with silence : Yes
Delete leading and trailing silent blocks : No
Null samples used in CRC calculations : Yes
Used interface : Native Win32 interface for Win NT & 2000

Used output format : Internal WAV Routines
Sample format : 44.100 Hz; 16 Bit; Stereo

TOC of the extracted CD

Track | Start | Length | Start sector | End sector
---------------------------------------------------------
1 | 0:00.00 | 8:04.32 | 0 | 36331
2 | 8:04.32 | 10:04.63 | 36332 | 81694
3 | 18:09.20 | 7:02.02 | 81695 | 113346
4 | 25:11.22 | 20:49.63 | 113347 | 207084
5 | 46:01.10 | 6:42.67 | 207085 | 237301
6 | 52:44.02 | 8:13.53 | 237302 | 274329
7 | 60:57.55 | 7:24.42 | 274330 | 307671

Range status and errors

Selected range

Filename C:\Users\Van Der Graaf Generator\1976 World Record (Mini LP PT-SHM Universal Japan 2015)\Van Der Graaf Generator - World Record PT-SHM.wav

Peak level 99.0 %
Extraction speed 8.2 X
Range quality 100.0 %
Test CRC AD236B72
Copy CRC AD236B72
Copy OK

No errors occurred

AccurateRip summary

Track 1 not present in database
Track 2 not present in database
Track 3 not present in database
Track 4 not present in database
Track 5 not present in database
Track 6 not present in database
Track 7 not present in database

None of the tracks are present in the AccurateRip database

End of status report

---- CUETools DB Plugin V2.1.4

[CTDB TOCID: Hq6LB3PRdVaqVm5lSalMha4z49E-] disk not present in database
Submit result: Hq6LB3PRdVaqVm5lSalMha4z49E- has been uploaded

==== Log checksum 4C812761B9FAEA0668347ADDB1AB6EFE81B1D65E13DC06C97E40E97CDD182EC0 ====
[_/su_spoiler]

CUETools 2.1.5

[CUETools log; Date: 4/17/2015 7:39:56 AM; Version: 2.1.5]
[CTDB TOCID: Hq6LB3PRdVaqVm5lSalMha4z49E-] found.
Track | CTDB Status
1 | (1/1) Accurately ripped
2 | (1/1) Accurately ripped
3 | (1/1) Accurately ripped
4 | (1/1) Accurately ripped
5 | (1/1) Accurately ripped
6 | (1/1) Accurately ripped
7 | (1/1) Accurately ripped
[AccurateRip ID: 00133123-0074269d-62100607] disk not present in database.

Track Peak [ CRC32 ] [W/O NULL] [ LOG ]
-- 99.0 [AD236B72] [8B6A366C] CRC32
01 98.2 [FC5BB35E] [5071649D]
02 88.7 [09383709] [E0E369D9]
03 91.9 [84AD16D8] [4A1DF872]
04 99.0 [31FE1A77] [7E00C728]
05 92.8 [A180DF72] [3FC9068F]
06 79.5 [9185D6B8] [F0C70E58]
07 79.4 [79BDEABA] [93683469]
[_/su_spoiler]

The Quiet Zone / The Pleasure Dome (1977)
The Quiet Zone / The Pleasure Dome (1977)

The Quiet Zone / The Pleasure Dome (1977)
EAC Rip | FLAC Image + Cue + Log | Full Scans @300 dpi, PNG
Label: Universal Music Japan | Cat#: UICY-40140 | Genre: Progressive Rock

Tracklist:
The Quiet Zone
01. Lizard Play – 04:30
02. The Habit Of The Broken Heart – 04:40
03. The Siren Song – 06:03
04. Last Frame – 06:16
The Pleasure Dome
05. The Wave – 03:13
06. Cat’s Eye / Yellow Fever – 05:19
07. The Sphinx In The Face – 05:57
08. Chemical World – 06:10
09. The Sphinx Returns – 01:26
Bonus Tracks
10. Door – 03:28
11. Ship Of Fools (Single B-Side Released In ’77 In France Only) – 03:50
12. The Wave (Demo Version) – 02:58

EAC Log

Exact Audio Copy V1.0 beta 4 from 7. December 2014

EAC extraction logfile from 6. April 2015, 15:45

Van Der Graaf Generator / The Quiet Zone / The Pleasure Dome PT-SHM

Used drive : PLEXTOR BD-R PX-B950SA Adapter: 1 ID: 1

Read mode : Secure
Utilize accurate stream : Yes
Defeat audio cache : Yes
Make use of C2 pointers : No

Read offset correction : 6
Overread into Lead-In and Lead-Out : No
Fill up missing offset samples with silence : Yes
Delete leading and trailing silent blocks : No
Null samples used in CRC calculations : Yes
Used interface : Native Win32 interface for Win NT & 2000

Used output format : Internal WAV Routines
Sample format : 44.100 Hz; 16 Bit; Stereo

TOC of the extracted CD

Track | Start | Length | Start sector | End sector
---------------------------------------------------------
1 | 0:00.00 | 4:30.10 | 0 | 20259
2 | 4:30.10 | 4:40.27 | 20260 | 41286
3 | 9:10.37 | 6:03.70 | 41287 | 68581
4 | 15:14.32 | 6:16.45 | 68582 | 96826
5 | 21:31.02 | 3:13.58 | 96827 | 111359
6 | 24:44.60 | 5:19.60 | 111360 | 135344
7 | 30:04.45 | 5:57.05 | 135345 | 162124
8 | 36:01.50 | 6:10.37 | 162125 | 189911
9 | 42:12.12 | 1:26.10 | 189912 | 196371
10 | 43:38.22 | 3:28.28 | 196372 | 211999
11 | 47:06.50 | 3:50.65 | 212000 | 229314
12 | 50:57.40 | 2:58.70 | 229315 | 242734

Range status and errors

Selected range

Filename C:\Users\Van Der Graaf Generator\1977 The Quiet Zone The Pleasure Dome (Mini LP PT-SHM Universal Japan 2015)\Van Der Graaf Generator - The Quiet Zone The Pleasure Dome PT-SHM.wav

Peak level 98.5 %
Extraction speed 7.1 X
Range quality 100.0 %
Test CRC 614D463B
Copy CRC 614D463B
Copy OK

No errors occurred

AccurateRip summary

Track 1 not present in database
Track 2 not present in database
Track 3 not present in database
Track 4 not present in database
Track 5 not present in database
Track 6 not present in database
Track 7 not present in database
Track 8 not present in database
Track 9 not present in database
Track 10 not present in database
Track 11 not present in database
Track 12 not present in database

None of the tracks are present in the AccurateRip database

End of status report

---- CUETools DB Plugin V2.1.4

[CTDB TOCID: ZJXRc92..2pdPtwlwh7ecxZGhwE-] disk not present in database
Submit result: ZJXRc92..2pdPtwlwh7ecxZGhwE- has been uploaded

==== Log checksum 4C18645623AA10748CC104D93C967E1EFE38800724C7C7C2D7804CE805BF1062 ====
[_/su_spoiler]

CUETools 2.1.5

[CUETools log; Date: 4/17/2015 7:40:00 AM; Version: 2.1.5]
[CTDB TOCID: ZJXRc92..2pdPtwlwh7ecxZGhwE-] found.
Track | CTDB Status
1 | (1/1) Accurately ripped
2 | (1/1) Accurately ripped
3 | (1/1) Accurately ripped
4 | (1/1) Accurately ripped
5 | (1/1) Accurately ripped
6 | (1/1) Accurately ripped
7 | (1/1) Accurately ripped
8 | (1/1) Accurately ripped
9 | (1/1) Accurately ripped
10 | (1/1) Accurately ripped
11 | (1/1) Accurately ripped
12 | (1/1) Accurately ripped
[AccurateRip ID: 001a0888-00f04a63-a30ca40c] disk not present in database.

Track Peak [ CRC32 ] [W/O NULL] [ LOG ]
-- 98.5 [614D463B] [64E55E1D] CRC32
01 90.9 [D78B0DAA] [AA842650]
02 98.5 [F96043AF] [B41A7F2D]
03 82.2 [4EA9BC82] [C513AF5A]
04 90.2 [760E2B1D] [A5DAEBCD]
05 60.3 [D69C282B] [0142D0F3]
06 94.6 [EFC360ED] [F948958F]
07 92.1 [1EDCFD06] [61698F73]
08 91.1 [3E84D0ED] [4F96A971]
09 85.4 [0D8FFEA2] [74486009]
10 40.2 [25E273C2] [69BDD89B]
11 78.3 [55AB33BC] [49CB1279]
12 44.7 [F626C59E] [BF61408F]
[_/su_spoiler]

Back & CD/DVD label

imagebam.com imagebam.com imagebam.com imagebam.com imagebam.com imagebam.com imagebam.com imagebam.com imagebam.com imagebam.com imagebam.com imagebam.com imagebam.com imagebam.com

Download From
 
LMA__VDGG.7ALB.2015
 
Password: www.LosslessMA.net
 
If you encounter broken links or other problem about this publication, please let me know
and write your comment below. I will reply and fix as soon as possible.