The Spencer Davis Group – The Best Of The Spencer Davis Group (1987)

The Spencer Davis Group - The Best Of The Spencer Davis Group (1987)

The Spencer Davis Group – The Best Of The Spencer Davis Group (1987)
EAC Rip | FLAC Image + Cue + Log | Full Scans @300 dpi, JPG, Included
FLAC: 254 MB | 3% RAR Recovery
Label: EMI America | Cat#: CDP 7 46598 2 | Genre: Psychedelic Rock

Somehow the same label issued two albums with the same name in the same year. This one, with 15 tracks, is vastly preferable to its 10-song counterpart. Both releases hit the high points with the irresistible “Gimme Some Lovin’,” “I’m a Man,” and others. With half as many tunes, though, this album includes the minor hit “Strong Love” and “Goodbye Stevie,” written by the group to commemorate the departure of sensational singer and multi-instrumentalist prodigy Steve Winwood. “Waltz for Lumumba” presages the jazzier turns he would take with Traffic.

Reviewed by Allmusic

Additional Info:
• Released Date: 1987
• More Biographical, Career & Discography info: Here

Tracklist:
01. Gimme Some Lovin’ – 2:56
02. Searchin’ – 2:36
03. Keep On Running – 2:45
04. I Can’t Stand It – 2:09
05. Strong Love – 2:16
06. Every Little Bit Hurts – 3:28
07. I’m A Man – 2:52
08. Back Into My Life Again – 2:26
09. Trampoline – 2:26
10. Somebody Help Me – 1:59
11. When I Come Home – 2:03
12. Stevie’s Blues – 3:50
13. The Hammer Song – 2:16
14. Waltz For Lumumba – 4:16
15. Goodbye Stevie – 2:23

EAC Log
Exact Audio Copy V1.0 beta 3 from 29. August 2011

EAC extraction logfile from 23. February 2015, 13:11

The Spencer Davis Group / The Best Of Spencer Davis Group

Used drive : HL-DT-STDVD+-RW GH50N Adapter: 0 ID: 1

Read mode : Secure
Utilize accurate stream : Yes
Defeat audio cache : Yes
Make use of C2 pointers : No

Read offset correction : 667
Overread into Lead-In and Lead-Out : No
Fill up missing offset samples with silence : Yes
Delete leading and trailing silent blocks : No
Null samples used in CRC calculations : Yes
Used interface : Native Win32 interface for Win NT & 2000

Used output format : User Defined Encoder
Selected bitrate : 768 kBit/s
Quality : High
Add ID3 tag : No
Command line compressor : C:\Program Files (x86)\Exact Audio Copy\FLAC\FLAC.EXE
Additional command line options : -V -8 -T “Date=%year%” -T “Genre=%genre%” %source%

TOC of the extracted CD

Track | Start | Length | Start sector | End sector
———————————————————
1 | 0:00.33 | 2:56.05 | 33 | 13237
2 | 2:56.38 | 2:36.00 | 13238 | 24937
3 | 5:32.38 | 2:44.70 | 24938 | 37307
4 | 8:17.33 | 2:09.37 | 37308 | 47019
5 | 10:26.70 | 2:15.53 | 47020 | 57197
6 | 12:42.48 | 3:28.20 | 57198 | 72817
7 | 16:10.68 | 2:51.62 | 72818 | 85704
8 | 19:02.55 | 2:26.20 | 85705 | 96674
9 | 21:29.00 | 2:25.38 | 96675 | 107587
10 | 23:54.38 | 1:58.50 | 107588 | 116487
11 | 25:53.13 | 2:03.07 | 116488 | 125719
12 | 27:56.20 | 3:50.13 | 125720 | 142982
13 | 31:46.33 | 2:16.05 | 142983 | 153187
14 | 34:02.38 | 4:16.02 | 153188 | 172389
15 | 38:18.40 | 2:22.68 | 172390 | 183107

Range status and errors

Selected range

Filename C:\222\MIX\British Invasion\1987 – The Best Of Spencer Davis Group\The Spencer Davis Group – The Best Of Spencer Davis Group.wav

Peak level 100.0 %
Extraction speed 2.9 X
Range quality 100.0 %
Test CRC 2D889785
Copy CRC 2D889785
Copy OK

No errors occurred

AccurateRip summary

Track 1 accurately ripped (confidence 2) [27095459] (AR v2)
Track 2 accurately ripped (confidence 2) [50C53D60] (AR v2)
Track 3 accurately ripped (confidence 2) [3EDE2F60] (AR v2)
Track 4 accurately ripped (confidence 2) [A9B88BE5] (AR v2)
Track 5 accurately ripped (confidence 2) [C7B6321A] (AR v2)
Track 6 accurately ripped (confidence 2) [7714A210] (AR v2)
Track 7 accurately ripped (confidence 2) [1876279D] (AR v2)
Track 8 accurately ripped (confidence 2) [12CE0329] (AR v2)
Track 9 accurately ripped (confidence 2) [1DC26A55] (AR v2)
Track 10 accurately ripped (confidence 2) [83984DDE] (AR v2)
Track 11 accurately ripped (confidence 2) [609DA575] (AR v2)
Track 12 accurately ripped (confidence 2) [E0CEBDCB] (AR v2)
Track 13 accurately ripped (confidence 2) [A1438DAE] (AR v2)
Track 14 accurately ripped (confidence 2) [B780798B] (AR v2)
Track 15 accurately ripped (confidence 2) [72659222] (AR v2)

All tracks accurately ripped

End of status report

==== Log checksum 179A54CB6A6F0B2340B96E6DB28EFA93B3C509882DB6505234751EAEFE58E544 ====

CUETools 2.1.5
[CUETools log; Date: 4/16/2015 7:25:26 PM; Version: 2.1.5]
Pregap length 00:00:33.
[CTDB TOCID: y03pdtlTmHrFSpzTjctjrXxLrts-] found.
Track | CTDB Status
1 | (5/6) Accurately ripped
2 | (5/6) Accurately ripped
3 | (5/6) Accurately ripped
4 | (6/6) Accurately ripped
5 | (5/6) Accurately ripped
6 | (5/6) Accurately ripped
7 | (5/6) Accurately ripped
8 | (5/6) Accurately ripped
9 | (5/6) Accurately ripped
10 | (5/6) Accurately ripped
11 | (4/6) Accurately ripped
12 | (5/6) Accurately ripped
13 | (5/6) Accurately ripped
14 | (5/6) Accurately ripped
15 | (5/6) Accurately ripped
[AccurateRip ID: 0015eaee-00f86679-d109890f] found.
Track [ CRC | V2 ] Status
01 [5f81231e|27095459] (02+02/33) Accurately ripped
02 [be8eeec2|50c53d60] (00+02/31) Accurately ripped
03 [6b4cf022|3ede2f60] (00+02/32) Accurately ripped
04 [82cf8f8e|a9b88be5] (00+02/31) Accurately ripped
05 [fbe2c580|c7b6321a] (00+02/31) Accurately ripped
06 [6b038d01|7714a210] (00+02/31) Accurately ripped
07 [b7901720|1876279d] (02+02/33) Accurately ripped
08 [4d77c9ff|12ce0329] (00+02/31) Accurately ripped
09 [483f9e08|1dc26a55] (00+02/31) Accurately ripped
10 [3442258d|83984dde] (00+02/31) Accurately ripped
11 [98f3087c|609da575] (00+02/31) Accurately ripped
12 [8f66ddb9|e0cebdcb] (00+02/31) Accurately ripped
13 [a75ec974|a1438dae] (00+02/30) Accurately ripped
14 [f02c5e5d|b780798b] (00+02/29) Accurately ripped
15 [3d036e3f|72659222] (00+02/31) Accurately ripped
Offsetted by 739:
01 [1be51e43] (18/33) Accurately ripped
02 [23f0791d] (18/31) Accurately ripped
03 [e9401fba] (19/32) Accurately ripped
04 [b1e7b63b] (18/31) Accurately ripped
05 [d010d4a2] (18/31) Accurately ripped
06 [6c35c09e] (18/31) Accurately ripped
07 [4a898e12] (18/33) Accurately ripped
08 [a597a627] (18/31) Accurately ripped
09 [2043b2be] (18/31) Accurately ripped
10 [b7c2b7b6] (18/31) Accurately ripped
11 [c27c0426] (18/31) Accurately ripped
12 [2577f5dc] (18/31) Accurately ripped
13 [b386f547] (18/30) Accurately ripped
14 [b1414607] (17/29) Accurately ripped
15 [afdf7159] (18/31) Accurately ripped

Track Peak [ CRC32 ] [W/O NULL] [ LOG ]
— 100.0 [2D889785] [F4F49FF3] CRC32
01 86.5 [76B29EE3] [F252BC35]
02 91.2 [8DF425E6] [C0C4489B]
03 92.7 [D5BC6A72] [BC80865F]
04 91.3 [9D2E2410] [684593A4]
05 76.4 [A513BD11] [0BB1AE60]
06 89.8 [749AF20D] [3162AA30]
07 95.5 [34EA72B6] [63CE380A]
08 100.0 [7F5274DF] [782EC740]
09 98.6 [EC262E9C] [73548926]
10 81.6 [438C00DE] [29BF8CB7]
11 97.7 [7FF28946] [C8198762]
12 97.7 [24F11BAA] [DFCF92EF]
13 97.0 [5ED66DB3] [245399E7]
14 92.7 [CB0847C9] [5D261117]
15 81.0 [389C83F3] [58279083]

Back & CD label

imagebam.com imagebam.com

Download From
 
LMA__TSDG.TBOTSDG.1987.rar
 
Password: www.LosslessMA.net
 
If you encounter broken links or other problem about this publication, please let me know
and write your comment below. I will reply and fix as soon as possible.