Tyrannosaurus Rex – My People Were Fair and Had Sky in Their Hair… (1968) [2014, Deluxe Edition]

Tyrannosaurus Rex - My People Were Fair and Had Sky in Their Hair... But Now They're Content to Wear Stars on Their Brows (1968) {2014, Deluxe Edition}

Tyrannosaurus Rex – My People Were Fair and Had Sky in Their Hair… But Now They’re Content to Wear Stars on Their Brows (1968) {2014, Deluxe Edition}
EAC Rip | 2xCD | FLAC Image + Cue + Log | Full Scans @300 dpi, PNG
FLAC: 618 MB | Scans: 301 MB | 3% RAR Recovery
Label: Polydor Records | Cat#: 535 388-7 | Genre: Psychedelic Rock

My People Were Fair and Had Sky in Their Hair… But Now They’re Content to Wear Stars on Their Brows is the debut album by psychedelic folk band Tyrannosaurus Rex (later known as T. Rex). It was released on 5 July 1968 by record label Regal Zonophone.

Personnel / Credits:
• Marc Bolan – guitar, lead vocals
• Steve Peregrin Took – percussion

Additional Info:
• Recorded Date: Early 1968 at Advision Studios, London, England
• Original Released Date: 5 July 1968
• Deluxe Edition Released Date: 2014
• Producer: Tony Visconti
• More information: Here

Disc 1:
01. Hot Rod Mama – 03:11
02. Scenescof – 01:40
03. Child Star – 02:51
04. Strange Orchestras – 01:47
05. Chateau In Virginia Waters – 02:40
06. Dwarfish Trumpet Blues – 02:46
07. Mustang Ford – 03:01
08. Afghan Woman – 01:59
09. Knight – 02:40
10. Graceful Fat Sheba – 01:29
11. Weilder Of Words – 03:19
12. Frowning Atahuallpa (My Inca Love) – 05:58
Bonus Tracks
13. Highways (BBC Radio Show: Top Gear 30th October 1967 – 01:52
14. Scenescof (BBC Radio Show: Top Gear 30th October 1967) – 01:41
15. Child Star (BBC Radio Show: Top Gear 30th October 1967) – 02:33
16. Dwarfish Trumpet Blues (BBC Radio Show: Top Gear 30th October 1967) – 02:23
17. Pictures Of Purple People (BBC Radio Show: Top Gear 30th October 1967) – 02:10
18. Hot Rod Mama (BBC Radio Show: Top Gear 30th October 1967) – 02:46
19. Knight (BBC Radio Show: Top Gear 11th March 1968) – 02:24
20. Afghan Woman (BBC Radio Show: Top Gear 11th March 1968) – 01:52
21. Frowning Atahuallpa (My Inca Love) (BBC Radio Show: Top Gear 11th March 1968) – 04:29
22. Strange Orchestras (BBC Radio Show: Top Gear 11th March 1968) – 01:40
23. Deborah (BBC Radio Show: Top Gear 11th March 1968) – 03:10
24. Mustang Ford (BBC Radio Show: Top Gear 11th March 1968) – 02:50

Disc 2:
01. Highways (Take 4 / Joe Boyd Session) – 02:02
02. Child Star (Take 2 / Joe Boyd Session) – 02:40
03. Dwarfish Trumpet Blues (Take 2 / Joe Boyd Session) – 02:38
04. Chateau In Virginia Waters (Take 3 / Joe Boyd Session) – 02:44
05. Marc Bolan Interview About Dwarfish Trumpet Blues Story – 00:53
06. Hot Rod Mama (Stereo Version) – 03:21
07. Scenescof (Stereo Version) – 01:43
08. Child Star (Stereo Version) – 02:52
09. Strange Orchestras (Stereo Version) – 01:47
10. Chateau In Virginia Waters (Stereo Version) – 02:38
11. Dwarfish Trumpet Blues (Stereo Version) – 02:48
12. Mustang Ford (Stereo Version) – 02:59
13. Afghan Woman (Stereo Version) – 01:59
14. Knight (Stereo Version) – 02:37
15. Graceful Fat Sheba (Stereo Version) – 01:29
16. Weilder Of Words (Stereo Version) – 03:18
17. Frowning Atahuallpa (My Inca Love) (Stereo Version) – 05:58
18. Deborah (A-Side / Stereo Version) – 03:08
19. Puckish Pan (Tony Visconti Home Demo) – 03:38
20. Dwarfish Trumpet Blues (Tony Visconti Home Demo) – 02:53
21. Knight (Tony Visconti Home Demo) – 02:44
22. Scenescof (Tony Visconti Home Demo) – 01:51
23. Knight – With Bass Guitar (Tony Visconti Home Demo) – 02:50
24. Lunacy’s Back (Tony Visconti Home Demo) – 02:29
25. Marc Bolan Interview With Debora (From BBC’s ‘The Story Of Pop – The Underground) – 00:59

EAC Logs
EAC Log Disc 1

Exact Audio Copy V1.0 beta 4 from 7. December 2014

EAC extraction logfile from 23. March 2015, 20:43

Tyrannosaurus Rex / My People Were Fair Deluxe CD1

Used drive : PLEXTOR BD-R PX-B950SA Adapter: 1 ID: 1

Read mode : Secure
Utilize accurate stream : Yes
Defeat audio cache : Yes
Make use of C2 pointers : No

Read offset correction : 6
Overread into Lead-In and Lead-Out : No
Fill up missing offset samples with silence : Yes
Delete leading and trailing silent blocks : No
Null samples used in CRC calculations : Yes
Used interface : Native Win32 interface for Win NT & 2000

Used output format : Internal WAV Routines
Sample format : 44.100 Hz; 16 Bit; Stereo

TOC of the extracted CD

Track | Start | Length | Start sector | End sector
---------------------------------------------------------
1 | 0:00.00 | 3:11.52 | 0 | 14376
2 | 3:11.52 | 1:40.13 | 14377 | 21889
3 | 4:51.65 | 2:51.42 | 21890 | 34756
4 | 7:43.32 | 1:47.53 | 34757 | 42834
5 | 9:31.10 | 2:40.52 | 42835 | 54886
6 | 12:11.62 | 2:46.68 | 54887 | 67404
7 | 14:58.55 | 3:01.23 | 67405 | 81002
8 | 18:00.03 | 1:59.41 | 81003 | 89968
9 | 19:59.44 | 2:40.62 | 89969 | 102030
10 | 22:40.31 | 1:29.48 | 102031 | 108753
11 | 24:10.04 | 3:19.04 | 108754 | 123682
12 | 27:29.08 | 5:58.60 | 123683 | 150592
13 | 33:27.68 | 1:52.29 | 150593 | 159021
14 | 35:20.22 | 1:41.04 | 159022 | 166600
15 | 37:01.26 | 2:33.11 | 166601 | 178086
16 | 39:34.37 | 2:23.70 | 178087 | 188881
17 | 41:58.32 | 2:10.48 | 188882 | 198679
18 | 44:09.05 | 2:46.21 | 198680 | 211150
19 | 46:55.26 | 2:24.01 | 211151 | 221951
20 | 49:19.27 | 1:52.53 | 221952 | 230404
21 | 51:12.05 | 4:29.52 | 230405 | 250631
22 | 55:41.57 | 1:40.69 | 250632 | 258200
23 | 57:22.51 | 3:10.10 | 258201 | 272460
24 | 60:32.61 | 2:50.41 | 272461 | 285251

Range status and errors

Selected range

Filename C:\Users\Meijin\Desktop\T. Rex\1968 My People Were Fair (2CD Deluxe Edition Polydor Records 2015)\CD1\Tyrannosaurus Rex - My People Were Fair Deluxe CD1.wav

Peak level 99.9 %
Extraction speed 7.5 X
Range quality 100.0 %
Test CRC 20685CCF
Copy CRC 20685CCF
Copy OK

No errors occurred

AccurateRip summary

Track 1 not present in database
Track 2 not present in database
Track 3 not present in database
Track 4 not present in database
Track 5 not present in database
Track 6 not present in database
Track 7 not present in database
Track 8 not present in database
Track 9 not present in database
Track 10 not present in database
Track 11 not present in database
Track 12 not present in database
Track 13 not present in database
Track 14 not present in database
Track 15 not present in database
Track 16 not present in database
Track 17 not present in database
Track 18 not present in database
Track 19 not present in database
Track 20 not present in database
Track 21 not present in database
Track 22 not present in database
Track 23 not present in database
Track 24 not present in database

None of the tracks are present in the AccurateRip database

End of status report

---- CUETools DB Plugin V2.1.4

[CTDB TOCID: EpK7KQY95LzbOFEEQAhP3pWFnHo-] found
Submit result: EpK7KQY95LzbOFEEQAhP3pWFnHo- has been confirmed
Track | CTDB Status
1 | (1/1) Accurately ripped
2 | (1/1) Accurately ripped
3 | (1/1) Accurately ripped
4 | (1/1) Accurately ripped
5 | (1/1) Accurately ripped
6 | (1/1) Accurately ripped
7 | (1/1) Accurately ripped
8 | (1/1) Accurately ripped
9 | (1/1) Accurately ripped
10 | (1/1) Accurately ripped
11 | (1/1) Accurately ripped
12 | (1/1) Accurately ripped
13 | (1/1) Accurately ripped
14 | (1/1) Accurately ripped
15 | (1/1) Accurately ripped
16 | (1/1) Accurately ripped
17 | (1/1) Accurately ripped
18 | (1/1) Accurately ripped
19 | (1/1) Accurately ripped
20 | (1/1) Accurately ripped
21 | (1/1) Accurately ripped
22 | (1/1) Accurately ripped
23 | (1/1) Accurately ripped
24 | (1/1) Accurately ripped

==== Log checksum 91D7657ED2AEA5F4D275AC423B513A55AB5ECF6CD0FA865DE6E60015EDCFEEF3 ====
[_/su_spoiler]

EAC Log Disc 2

Exact Audio Copy V1.0 beta 4 from 7. December 2014

EAC extraction logfile from 23. March 2015, 20:01

Tyrannosaurus Rex / My People Were Fair Deluxe CD2

Used drive : PLEXTOR BD-R PX-B950SA Adapter: 1 ID: 1

Read mode : Secure
Utilize accurate stream : Yes
Defeat audio cache : Yes
Make use of C2 pointers : No

Read offset correction : 6
Overread into Lead-In and Lead-Out : No
Fill up missing offset samples with silence : Yes
Delete leading and trailing silent blocks : No
Null samples used in CRC calculations : Yes
Used interface : Native Win32 interface for Win NT & 2000

Used output format : Internal WAV Routines
Sample format : 44.100 Hz; 16 Bit; Stereo

TOC of the extracted CD

Track | Start | Length | Start sector | End sector
---------------------------------------------------------
1 | 0:00.00 | 2:02.36 | 0 | 9185
2 | 2:02.36 | 2:40.54 | 9186 | 21239
3 | 4:43.15 | 2:38.16 | 21240 | 33105
4 | 7:21.31 | 2:44.68 | 33106 | 45473
5 | 10:06.24 | 0:53.49 | 45474 | 49497
6 | 10:59.73 | 3:21.07 | 49498 | 64579
7 | 14:21.05 | 1:43.00 | 64580 | 72304
8 | 16:04.05 | 2:52.52 | 72305 | 85256
9 | 18:56.57 | 1:47.34 | 85257 | 93315
10 | 20:44.16 | 2:38.15 | 93316 | 105180
11 | 23:22.31 | 2:48.68 | 105181 | 117848
12 | 26:11.24 | 2:59.53 | 117849 | 131326
13 | 29:11.02 | 1:59.24 | 131327 | 140275
14 | 31:10.26 | 2:37.48 | 140276 | 152098
15 | 33:47.74 | 1:29.17 | 152099 | 158790
16 | 35:17.16 | 3:18.71 | 158791 | 173711
17 | 38:36.12 | 5:58.22 | 173712 | 200583
18 | 44:34.34 | 3:08.62 | 200584 | 214745
19 | 47:43.21 | 3:38.62 | 214746 | 231157
20 | 51:22.08 | 2:53.20 | 231158 | 244152
21 | 54:15.28 | 2:44.11 | 244153 | 256463
22 | 56:59.39 | 1:51.11 | 256464 | 264799
23 | 58:50.50 | 2:50.12 | 264800 | 277561
24 | 61:40.62 | 2:29.48 | 277562 | 288784
25 | 64:10.35 | 0:59.21 | 288785 | 293230

Range status and errors

Selected range

Filename C:\Users\Meijin\Desktop\T. Rex\1968 My People Were Fair (2CD Deluxe Edition Polydor Records 2015)\CD2\Tyrannosaurus Rex - My People Were Fair Deluxe CD2.wav

Peak level 100.0 %
Extraction speed 7.6 X
Range quality 100.0 %
Test CRC 20F35A18
Copy CRC 20F35A18
Copy OK

No errors occurred

AccurateRip summary

Track 1 not present in database
Track 2 not present in database
Track 3 not present in database
Track 4 not present in database
Track 5 not present in database
Track 6 not present in database
Track 7 not present in database
Track 8 not present in database
Track 9 not present in database
Track 10 not present in database
Track 11 not present in database
Track 12 not present in database
Track 13 not present in database
Track 14 not present in database
Track 15 not present in database
Track 16 not present in database
Track 17 not present in database
Track 18 not present in database
Track 19 not present in database
Track 20 not present in database
Track 21 not present in database
Track 22 not present in database
Track 23 not present in database
Track 24 not present in database
Track 25 not present in database

None of the tracks are present in the AccurateRip database

End of status report

---- CUETools DB Plugin V2.1.4

[CTDB TOCID: 7sWpeGPuT7h1AqtSsi.uS0cUjgE-] found
Submit result: 7sWpeGPuT7h1AqtSsi.uS0cUjgE- has been confirmed
Track | CTDB Status
1 | (1/1) Accurately ripped
2 | (1/1) Accurately ripped
3 | (1/1) Accurately ripped
4 | (1/1) Accurately ripped
5 | (1/1) Accurately ripped
6 | (1/1) Accurately ripped
7 | (1/1) Accurately ripped
8 | (1/1) Accurately ripped
9 | (1/1) Accurately ripped
10 | (1/1) Accurately ripped
11 | (1/1) Accurately ripped
12 | (1/1) Accurately ripped
13 | (1/1) Accurately ripped
14 | (1/1) Accurately ripped
15 | (1/1) Accurately ripped
16 | (1/1) Accurately ripped
17 | (1/1) Accurately ripped
18 | (1/1) Accurately ripped
19 | (1/1) Accurately ripped
20 | (1/1) Accurately ripped
21 | (1/1) Accurately ripped
22 | (1/1) Accurately ripped
23 | (1/1) Accurately ripped
24 | (1/1) Accurately ripped
25 | (1/1) Accurately ripped

==== Log checksum 2FB62FF25EB232C1CEA08D6B50AB825A9D91318880E197BE5690A339331A46BA ====
[_/su_spoiler]

CUETools 2.1.5 Logs
CUETools 2.1.5 Disc 1

[CUETools log; Date: 4/2/2015 2:26:19 AM; Version: 2.1.5]
[CTDB TOCID: EpK7KQY95LzbOFEEQAhP3pWFnHo-] found.
Track | CTDB Status
1 | (2/2) Accurately ripped
2 | (2/2) Accurately ripped
3 | (2/2) Accurately ripped
4 | (2/2) Accurately ripped
5 | (2/2) Accurately ripped
6 | (2/2) Accurately ripped
7 | (2/2) Accurately ripped
8 | (2/2) Accurately ripped
9 | (2/2) Accurately ripped
10 | (2/2) Accurately ripped
11 | (2/2) Accurately ripped
12 | (2/2) Accurately ripped
13 | (2/2) Accurately ripped
14 | (2/2) Accurately ripped
15 | (2/2) Accurately ripped
16 | (2/2) Accurately ripped
17 | (2/2) Accurately ripped
18 | (2/2) Accurately ripped
19 | (2/2) Accurately ripped
20 | (2/2) Accurately ripped
21 | (2/2) Accurately ripped
22 | (2/2) Accurately ripped
23 | (2/2) Accurately ripped
24 | (2/2) Accurately ripped
[AccurateRip ID: 00359ca6-03a4e95d-280edb18] disk not present in database.

Track Peak [ CRC32 ] [W/O NULL] [ LOG ]
-- 99.9 [20685CCF] [2ED2789F] CRC32
01 78.7 [6095865E] [E4757E62]
02 86.2 [C68C0FED] [B1FAB28B]
03 99.1 [88F663FA] [79C26F86]
04 73.6 [21F8D8F8] [59BEE880]
05 97.2 [DA4527DF] [A95665E3]
06 99.9 [014254F4] [2799A42A]
07 99.8 [4D2E7933] [27535A80]
08 99.9 [A6B46038] [6D1C2F93]
09 92.6 [9EB60614] [EC00C8D7]
10 99.9 [ED67FDCA] [2E38C4DB]
11 87.6 [A0B8B595] [3030F6DB]
12 89.2 [2E342687] [CE60AFE8]
13 99.9 [C09AA1F0] [97FE8CD7]
14 79.3 [A95E09F8] [22A5E3DD]
15 99.9 [8AC53603] [C0D10AA8]
16 94.1 [5591E3A0] [8E02594E]
17 79.3 [59EEF13B] [F92BF450]
18 99.9 [5AF2202B] [47F3E113]
19 72.4 [94C3443D] [3A3F3009]
20 70.7 [D55962A2] [05A2DF86]
21 89.3 [BD61AA15] [C5B4EF83]
22 79.3 [B0B787DA] [EEB1039E]
23 79.7 [0C7602AB] [CDFDB894]
24 79.3 [36AABA96] [27B267A1]
[_/su_spoiler]

CUETools 2.1.5 Disc 2

[CUETools log; Date: 4/2/2015 2:28:07 AM; Version: 2.1.5]
[CTDB TOCID: 7sWpeGPuT7h1AqtSsi.uS0cUjgE-] found.
Track | CTDB Status
1 | (2/2) Accurately ripped
2 | (2/2) Accurately ripped
3 | (2/2) Accurately ripped
4 | (2/2) Accurately ripped
5 | (2/2) Accurately ripped
6 | (2/2) Accurately ripped
7 | (2/2) Accurately ripped
8 | (2/2) Accurately ripped
9 | (2/2) Accurately ripped
10 | (2/2) Accurately ripped
11 | (2/2) Accurately ripped
12 | (2/2) Accurately ripped
13 | (2/2) Accurately ripped
14 | (2/2) Accurately ripped
15 | (2/2) Accurately ripped
16 | (2/2) Accurately ripped
17 | (2/2) Accurately ripped
18 | (2/2) Accurately ripped
19 | (2/2) Accurately ripped
20 | (2/2) Accurately ripped
21 | (2/2) Accurately ripped
22 | (2/2) Accurately ripped
23 | (2/2) Accurately ripped
24 | (2/2) Accurately ripped
25 | (2/2) Accurately ripped
[AccurateRip ID: 0038d588-0410221d-610f4519] disk not present in database.

Track Peak [ CRC32 ] [W/O NULL] [ LOG ]
-- 100.0 [20F35A18] [A2D7142E] CRC32
01 100.0 [014BA65E] [95CA9030]
02 100.0 [BAA6DB0D] [C26AD687]
03 100.0 [0D42DC26] [EF8CE884]
04 100.0 [942CBABA] [81ECA28E]
05 100.0 [E84DCA57] [F2E7A16C]
06 98.0 [0DB329E1] [764BD1DC]
07 97.9 [004B3385] [4F822ADD]
08 97.9 [E8D3020E] [20C1F749]
09 98.5 [FD71C13E] [05F6060D]
10 97.8 [7ED4779C] [02B5F15E]
11 97.9 [60A607DB] [260257CD]
12 97.6 [E70C7806] [377C8BD3]
13 97.7 [81B488BD] [2F30C628]
14 93.1 [B509CE6A] [31AE14C6]
15 88.7 [E58616CF] [D60649C6]
16 91.4 [0DC0506B] [7338598C]
17 98.2 [C792706F] [4447D74E]
18 81.7 [C9C2C273] [BD9D6C88]
19 100.0 [EB7AB3BF] [CFFD64D6]
20 99.9 [5F58E9EC] [056A5697]
21 99.9 [C12F4E83] [6A8EB25A]
22 99.9 [4F4AB726] [0A9E8AA6]
23 99.9 [5C2773D0] [00CA3B87]
24 100.0 [F33CE1C7] [53247BD3]
25 97.0 [122DD72C] [DB81F68F]
[_/su_spoiler]

Back & CD labels

imagebam.com imagebam.com

Download From
 
LMA__TR.MPWF.1968.2014.DE__CD1.rar
LMA__TR.MPWF.1968.2014.DE__CD2.rar
LMA__TR.MPWF.1968.2014.DE__Scans.rar
 
Password: www.LosslessMA.net
 
If you encounter broken links or other problem about this publication, please let me know
and write your comment below. I will reply and fix as soon as possible.