Tyrannosaurus Rex – Unicorn (1969) {2014, Deluxe Edition}

Tyrannosaurus Rex - Unicorn (1969) {2014, Deluxe Edition}

Tyrannosaurus Rex – Unicorn (1969) {2014, Deluxe Edition}
EAC Rip | 2xCD | FLAC Image + Cue + Log | Full Scans @300 dpi, PNG
FLAC: 636 MB | Scans: 316 MB | 3% RAR Recovery
Label: Polydor Records | Cat#: 535 391-7 | Genre: Psychedelic Rock

Unicorn is the third studio album by English psychedelic folk band Tyrannosaurus Rex (later known as T. Rex). It was released on 16 May 1969 by record labels Regal Zonophone and Blue Thumb, and was the last Tyrannosaurus Rex album to feature Steve Peregrin Took.

Personnel / Credits:
• Marc Bolan – guitar, lead vocals
• Steve Peregrin Took – percussion

Additional Info:
• Recorded Date: November 1968 – February 1969 at Trident Studios, London, England
• Original Released Date: May 16, 1969
• Deluxe Edition Released Date: 2014
• Producer: Tony Visconti
• More info: Here

Disc 1:
01. Chariots Of Silk – 02:29
02. ‘Pon A Hill – 01:16
03. The Seal Of Seasons – 01:46
04. The Throat Of Winter – 01:58
05. Cat Black (The Wizards Hat) – 02:52
06. Stones For Avalon – 01:35
07. She Was Born To Be My Unicorn – 02:35
08. Like A White Star, Tangled And Far, Tulip That’s What You Are – 03:48
09. Warlord Of The Royal Crocodiles – 02:10
10. Evenings Of Damask – 02:24
11. The Sea Beasts – 02:24
12. Iscariot – 02:51
13. Nijinski Hind – 02:17
14. The Pilgrims Tale – 02:05
15. The Misty Coast Of Albany – 01:42
16. Romany Soup – 05:38
Bonus Tracks
17. Pewter Suitor (Single A-Side) – 03:10
18. King Of The Rumbling Spires (Single A-Side) – 02:07
19. Do You Remember (Cult) (Single B-Side) – 02:17
20. Once Upon A Sea Of Abyssinia (From 20th Century Superstar) – 02:07
21. Demon Queen (From 20th Century Superstar) – 01:36
22. Ill Starred Man (From 20th Century Superstar) – 02:09
23. Blessed Wild Apple Girl (From The Best Of T. Rex) – 02:32
24. Chariots Of Silk (Live On BBC Top Gear 11th May 1969) – 02:29
25. Once Upon The Seas Of Abyssinia (Live On BBC Top Gear 11th May 1969) – 02:03
26. Nijinsky Hind (Live On BBC Top Gear 11th May 1969) – 02:17
27. The Misty Coast Of Albany (Live On BBC Top Gear 11th May 1969) – 02:16
28. Iscariot (Live On BBC Top Gear 11th May 1969) – 01:55

Disc 2
01. Pewter Suitor (Take 3) – 03:21
02. Chariots Of Silk (Take 1 From Unicorn) – 02:41
03. ‘Pon A Hill (Take 2) – 01:46
04. The Seal Of Seasons (Take 5) – 02:36
05. The Throat Of Winter (Take 2) – 02:21
06. Cat Black (The Wizzards Hat) (Take 1) – 03:07
07. Stones For Avalon (Take 2) – 01:45
08. She Was Born To Be My Unicorn (Take 1) – 02:51
09. Like A White Star, Tangled And Far, Tulip That’s What You Are (Take 1) – 03:59
10. Warlord Of The Royal Crocodiles (Take 4) – 02:16
11. Evenings Of Damask (Take 4) – 02:30
12. The Sea Beasts (Take 3) – 02:29
13. Iscariot (Take 4) – 02:05
14. Nijinsky Hound (Take 5) – 02:27
15. The Pilgrims Tale (Take 1) – 02:10
16. The Misty Coast Of Albany (Take 3) – 01:44
17. Romany Soup (Take 2) – 02:24
18. King Of The Rumbling Spires (Take 1) – 02:15
19. King Of The Rumbling Spires (Take 3) – 02:25
20. Do You Remember (Take 2) – 02:18
21. Once Upon The Seas Of Abyssinia (Take 3) – 02:19
22. Demon Queen (Take 1) – 01:44
23. III Starred Man (Take 1) – 02:18
24. Blessed Wild Apple Girl (Take 2) – 02:43
25. The Lion And The Unicorn (Live The Lyceum, London, 11th April 1969) – 03:22
26. Interview (Blue Thumb Promo 7”) – 03:16

EAC Logs
EAC Log Disc 1

Exact Audio Copy V1.0 beta 4 from 7. December 2014

EAC extraction logfile from 21. March 2015, 18:07

Tyrannosaurus Rex / Unicorn Deluxe CD1

Used drive : PLEXTOR BD-R PX-B950SA Adapter: 1 ID: 1

Read mode : Secure
Utilize accurate stream : Yes
Defeat audio cache : Yes
Make use of C2 pointers : No

Read offset correction : 6
Overread into Lead-In and Lead-Out : No
Fill up missing offset samples with silence : Yes
Delete leading and trailing silent blocks : No
Null samples used in CRC calculations : Yes
Used interface : Native Win32 interface for Win NT & 2000

Used output format : Internal WAV Routines
Sample format : 44.100 Hz; 16 Bit; Stereo

TOC of the extracted CD

Track | Start | Length | Start sector | End sector
---------------------------------------------------------
1 | 0:00.00 | 2:29.74 | 0 | 11248
2 | 2:29.74 | 1:16.51 | 11249 | 16999
3 | 3:46.50 | 1:46.61 | 17000 | 25010
4 | 5:33.36 | 1:58.02 | 25011 | 33862
5 | 7:31.38 | 2:52.35 | 33863 | 46797
6 | 10:23.73 | 1:35.68 | 46798 | 53990
7 | 11:59.66 | 2:35.17 | 53991 | 65632
8 | 14:35.08 | 3:48.04 | 65633 | 82736
9 | 18:23.12 | 2:10.32 | 82737 | 92518
10 | 20:33.44 | 2:24.51 | 92519 | 103369
11 | 22:58.20 | 2:24.50 | 103370 | 114219
12 | 25:22.70 | 2:51.45 | 114220 | 127089
13 | 28:14.40 | 2:17.73 | 127090 | 137437
14 | 30:32.38 | 2:05.05 | 137438 | 146817
15 | 32:37.43 | 1:42.20 | 146818 | 154487
16 | 34:19.63 | 5:38.03 | 154488 | 179840
17 | 39:57.66 | 3:10.34 | 179841 | 194124
18 | 43:08.25 | 2:07.59 | 194125 | 203708
19 | 45:16.09 | 2:17.24 | 203709 | 214007
20 | 47:33.33 | 2:07.39 | 214008 | 223571
21 | 49:40.72 | 1:36.52 | 223572 | 230823
22 | 51:17.49 | 2:09.50 | 230824 | 240548
23 | 53:27.24 | 2:32.20 | 240549 | 251968
24 | 55:59.44 | 2:29.70 | 251969 | 263213
25 | 58:29.39 | 2:03.01 | 263214 | 272439
26 | 60:32.40 | 2:17.32 | 272440 | 282746
27 | 62:49.72 | 2:16.00 | 282747 | 292946
28 | 65:05.72 | 1:55.36 | 292947 | 301607

Range status and errors

Selected range

Filename C:\Users\Meijin\Desktop\T. Rex\1969 Unicorn (2CD Deluxe Edition Polydor Records 2015)\CD1\Tyrannosaurus Rex - Unicorn Deluxe CD1.wav

Peak level 99.9 %
Extraction speed 8.2 X
Range quality 100.0 %
Test CRC 058C749F
Copy CRC 058C749F
Copy OK

No errors occurred

AccurateRip summary

Track 1 not present in database
Track 2 not present in database
Track 3 not present in database
Track 4 not present in database
Track 5 not present in database
Track 6 not present in database
Track 7 not present in database
Track 8 not present in database
Track 9 not present in database
Track 10 not present in database
Track 11 not present in database
Track 12 not present in database
Track 13 not present in database
Track 14 not present in database
Track 15 not present in database
Track 16 not present in database
Track 17 not present in database
Track 18 not present in database
Track 19 not present in database
Track 20 not present in database
Track 21 not present in database
Track 22 not present in database
Track 23 not present in database
Track 24 not present in database
Track 25 not present in database
Track 26 not present in database
Track 27 not present in database
Track 28 not present in database

None of the tracks are present in the AccurateRip database

End of status report

---- CUETools DB Plugin V2.1.4

[CTDB TOCID: Bsz2KJy40Wxn1.AXFLKWdBGrcnc-] found
Submit result: Bsz2KJy40Wxn1.AXFLKWdBGrcnc- has been confirmed
Track | CTDB Status
1 | (2/2) Accurately ripped
2 | (2/2) Accurately ripped
3 | (2/2) Accurately ripped
4 | (2/2) Accurately ripped
5 | (2/2) Accurately ripped
6 | (2/2) Accurately ripped
7 | (2/2) Accurately ripped
8 | (2/2) Accurately ripped
9 | (2/2) Accurately ripped
10 | (2/2) Accurately ripped
11 | (2/2) Accurately ripped
12 | (2/2) Accurately ripped
13 | (2/2) Accurately ripped
14 | (2/2) Accurately ripped
15 | (2/2) Accurately ripped
16 | (2/2) Accurately ripped
17 | (2/2) Accurately ripped
18 | (2/2) Accurately ripped
19 | (2/2) Accurately ripped
20 | (2/2) Accurately ripped
21 | (2/2) Accurately ripped
22 | (2/2) Accurately ripped
23 | (2/2) Accurately ripped
24 | (2/2) Accurately ripped
25 | (2/2) Accurately ripped
26 | (2/2) Accurately ripped
27 | (2/2) Accurately ripped
28 | (2/2) Accurately ripped

==== Log checksum 63A601BA45E21AF6D54C1AFF9A8036E25D64344BD28D87DC69E0B02A58191E4E ====
[_/su_spoiler]

EAC Log Disc 2

Exact Audio Copy V1.0 beta 4 from 7. December 2014

EAC extraction logfile from 21. March 2015, 17:16

Tyrannosaurus Rex / Unicorn Deluxe CD2

Used drive : PLEXTOR BD-R PX-B950SA Adapter: 1 ID: 1

Read mode : Secure
Utilize accurate stream : Yes
Defeat audio cache : Yes
Make use of C2 pointers : No

Read offset correction : 6
Overread into Lead-In and Lead-Out : No
Fill up missing offset samples with silence : Yes
Delete leading and trailing silent blocks : No
Null samples used in CRC calculations : Yes
Used interface : Native Win32 interface for Win NT & 2000

Used output format : Internal WAV Routines
Sample format : 44.100 Hz; 16 Bit; Stereo

TOC of the extracted CD

Track | Start | Length | Start sector | End sector
---------------------------------------------------------
1 | 0:00.00 | 3:21.65 | 0 | 15139
2 | 3:21.65 | 2:41.42 | 15140 | 27256
3 | 6:03.32 | 1:46.30 | 27257 | 35236
4 | 7:49.62 | 2:36.34 | 35237 | 46970
5 | 10:26.21 | 2:21.27 | 46971 | 57572
6 | 12:47.48 | 3:07.29 | 57573 | 71626
7 | 15:55.02 | 1:45.04 | 71627 | 79505
8 | 17:40.06 | 2:51.50 | 79506 | 92380
9 | 20:31.56 | 3:59.43 | 92381 | 110348
10 | 24:31.24 | 2:16.08 | 110349 | 120556
11 | 26:47.32 | 2:30.15 | 120557 | 131821
12 | 29:17.47 | 2:29.38 | 131822 | 143034
13 | 31:47.10 | 2:05.36 | 143035 | 152445
14 | 33:52.46 | 2:27.11 | 152446 | 163481
15 | 36:19.57 | 2:10.14 | 163482 | 173245
16 | 38:29.71 | 1:44.69 | 173246 | 181114
17 | 40:14.65 | 2:24.34 | 181115 | 191948
18 | 42:39.24 | 2:15.66 | 191949 | 202139
19 | 44:55.15 | 2:25.15 | 202140 | 213029
20 | 47:20.30 | 2:18.69 | 213030 | 223448
21 | 49:39.24 | 2:19.24 | 223449 | 233897
22 | 51:58.48 | 1:44.44 | 233898 | 241741
23 | 53:43.17 | 2:18.45 | 241742 | 252136
24 | 56:01.62 | 2:43.70 | 252137 | 264431
25 | 58:45.57 | 3:22.15 | 264432 | 279596
26 | 62:07.72 | 3:15.69 | 279597 | 294290

Range status and errors

Selected range

Filename C:\Users\Meijin\Desktop\T. Rex\1969 Unicorn (2CD Deluxe Edition Polydor Records 2015)\CD2\Tyrannosaurus Rex - Unicorn Deluxe CD2.wav

Peak level 100.0 %
Extraction speed 7.6 X
Range quality 100.0 %
Test CRC AF31FF9A
Copy CRC AF31FF9A
Copy OK

No errors occurred

AccurateRip summary

Track 1 not present in database
Track 2 not present in database
Track 3 not present in database
Track 4 not present in database
Track 5 not present in database
Track 6 not present in database
Track 7 not present in database
Track 8 not present in database
Track 9 not present in database
Track 10 not present in database
Track 11 not present in database
Track 12 not present in database
Track 13 not present in database
Track 14 not present in database
Track 15 not present in database
Track 16 not present in database
Track 17 not present in database
Track 18 not present in database
Track 19 not present in database
Track 20 not present in database
Track 21 not present in database
Track 22 not present in database
Track 23 not present in database
Track 24 not present in database
Track 25 not present in database
Track 26 not present in database

None of the tracks are present in the AccurateRip database

End of status report

---- CUETools DB Plugin V2.1.4

[CTDB TOCID: ChQDXi7C_DYmbNE.oplLoPowpDE-] found
Submit result: ChQDXi7C_DYmbNE.oplLoPowpDE- has been confirmed
Track | CTDB Status
1 | (2/2) Accurately ripped
2 | (2/2) Accurately ripped
3 | (2/2) Accurately ripped
4 | (2/2) Accurately ripped
5 | (2/2) Accurately ripped
6 | (2/2) Accurately ripped
7 | (2/2) Accurately ripped
8 | (2/2) Accurately ripped
9 | (2/2) Accurately ripped
10 | (2/2) Accurately ripped
11 | (2/2) Accurately ripped
12 | (2/2) Accurately ripped
13 | (2/2) Accurately ripped
14 | (2/2) Accurately ripped
15 | (2/2) Accurately ripped
16 | (2/2) Accurately ripped
17 | (2/2) Accurately ripped
18 | (2/2) Accurately ripped
19 | (2/2) Accurately ripped
20 | (2/2) Accurately ripped
21 | (2/2) Accurately ripped
22 | (2/2) Accurately ripped
23 | (2/2) Accurately ripped
24 | (2/2) Accurately ripped
25 | (2/2) Accurately ripped
26 | (2/2) Accurately ripped

==== Log checksum F3B3485E0D6C2F3C0AE9C33476E4BD08E723246A54DA24795078761B3B9F2D28 ====
[_/su_spoiler]

CUETools 2.1.5 Logs
CUETools 2.1.5 Disc 1

[CUETools log; Date: 4/2/2015 7:26:35 PM; Version: 2.1.5]
[CTDB TOCID: Bsz2KJy40Wxn1.AXFLKWdBGrcnc-] found.
Track | CTDB Status
1 | (3/3) Accurately ripped
2 | (3/3) Accurately ripped
3 | (3/3) Accurately ripped
4 | (3/3) Accurately ripped
5 | (3/3) Accurately ripped
6 | (3/3) Accurately ripped
7 | (3/3) Accurately ripped
8 | (3/3) Accurately ripped
9 | (3/3) Accurately ripped
10 | (3/3) Accurately ripped
11 | (3/3) Accurately ripped
12 | (3/3) Accurately ripped
13 | (3/3) Accurately ripped
14 | (3/3) Accurately ripped
15 | (3/3) Accurately ripped
16 | (3/3) Accurately ripped
17 | (3/3) Accurately ripped
18 | (3/3) Accurately ripped
19 | (3/3) Accurately ripped
20 | (3/3) Accurately ripped
21 | (3/3) Accurately ripped
22 | (3/3) Accurately ripped
23 | (3/3) Accurately ripped
24 | (3/3) Accurately ripped
25 | (3/3) Accurately ripped
26 | (3/3) Accurately ripped
27 | (3/3) Accurately ripped
28 | (3/3) Accurately ripped
[AccurateRip ID: 00429602-0542b164-9a0fb51c] disk not present in database.

Track Peak [ CRC32 ] [W/O NULL] [ LOG ]
-- 99.9 [058C749F] [66356A55] CRC32
01 99.9 [C1706BDB] [E9128421]
02 99.9 [F1F7149F] [50C67563]
03 99.9 [02EEB90B] [318EDA33]
04 99.9 [B89B379C] [05C420EC]
05 99.9 [48D90228] [9D1826C5]
06 99.9 [58C3307E] [49F3FECF]
07 99.9 [3E40C94B] [42B4B4DB]
08 99.9 [398A5591] [F6FE45E6]
09 99.9 [90114818] [8EEAB09E]
10 99.9 [A844D027] [2A256695]
11 99.9 [89108FCC] [651ACD95]
12 97.5 [C62C653D] [E8ECFC51]
13 97.4 [92F09B8E] [E1FF5AAC]
14 99.7 [9846D231] [71FCAD93]
15 92.5 [25188CB7] [41ED4B57]
16 95.1 [0A0A179E] [BB47E275]
17 99.9 [B5C47B18] [A48AC532]
18 99.9 [09AFB356] [1A77B1FF]
19 99.9 [00BF8242] [EC3EEDDF]
20 98.0 [F961AF4C] [E7A3B04D]
21 99.9 [560EBE96] [09F8F1D0]
22 99.9 [37E8B168] [290E7CD6]
23 99.9 [EF71AF87] [5CB09683]
24 99.9 [F02C15CB] [C8E3B5A9]
25 99.9 [D167654D] [DA6A56AC]
26 99.9 [447052B0] [FA290C24]
27 98.3 [1A3181D9] [BBA50C66]
28 99.9 [5EF42638] [6708C5D3]
[_/su_spoiler]

CUETools 2.1.5 Disc 2

[CUETools log; Date: 4/2/2015 7:26:40 PM; Version: 2.1.5]
[CTDB TOCID: ChQDXi7C_DYmbNE.oplLoPowpDE-] found.
Track | CTDB Status
1 | (3/3) Accurately ripped
2 | (3/3) Accurately ripped
3 | (3/3) Accurately ripped
4 | (3/3) Accurately ripped
5 | (3/3) Accurately ripped
6 | (3/3) Accurately ripped
7 | (3/3) Accurately ripped
8 | (3/3) Accurately ripped
9 | (3/3) Accurately ripped
10 | (3/3) Accurately ripped
11 | (3/3) Accurately ripped
12 | (3/3) Accurately ripped
13 | (3/3) Accurately ripped
14 | (3/3) Accurately ripped
15 | (3/3) Accurately ripped
16 | (3/3) Accurately ripped
17 | (3/3) Accurately ripped
18 | (3/3) Accurately ripped
19 | (3/3) Accurately ripped
20 | (3/3) Accurately ripped
21 | (3/3) Accurately ripped
22 | (3/3) Accurately ripped
23 | (3/3) Accurately ripped
24 | (3/3) Accurately ripped
25 | (3/3) Accurately ripped
26 | (3/3) Accurately ripped
[AccurateRip ID: 003d02c9-046845f8-710f531a] disk not present in database.

Track Peak [ CRC32 ] [W/O NULL] [ LOG ]
-- 100.0 [AF31FF9A] [23032A6E] CRC32
01 100.0 [C41FB347] [ABEDF21E]
02 89.4 [0D5349D2] [8555751D]
03 72.7 [194493C2] [BFD2B06F]
04 95.0 [7A8244F2] [393B94E5]
05 97.1 [66807456] [85444C05]
06 96.5 [19B53C3A] [3A3F5850]
07 78.4 [E9A9E224] [F196DDDB]
08 58.9 [3C6CAE8F] [05085E7B]
09 100.0 [1FF160F5] [0946C57A]
10 100.0 [3576EAD3] [B54C2210]
11 100.0 [FAAAA668] [D59B3DCA]
12 93.3 [B9DAEA9F] [37DA0734]
13 67.1 [4FCCE669] [F999E81D]
14 67.3 [F1A83D97] [B7F4CDB9]
15 75.8 [BA74563A] [0C1CC041]
16 95.6 [71D28FA1] [6B8E2310]
17 77.6 [1ABB16AD] [F6BB284A]
18 74.6 [4F0DF598] [62C7A7B9]
19 78.7 [442D5932] [0DDEE01E]
20 60.5 [CA305F60] [6601BB4C]
21 97.8 [C9304141] [92E8976E]
22 73.5 [6D686077] [2920FFA0]
23 71.7 [38959274] [5926968D]
24 100.0 [7171EDBE] [69DED889]
25 70.7 [593DC660] [F8138894]
26 99.9 [A82EB31C] [E36A9D7B]
[_/su_spoiler]

Back & CD labels

imagebam.com imagebam.com
imagebam.com

Download From
 
LMA__TR.U.1969.2014.DE__CD1.rar
LMA__TR.U.1969.2014.DE__CD2.rar
LMA__TR.U.1969.2014.DE__scans.rar
 
Password: www.LosslessMA.net
 
If you encounter broken links or other problem about this publication, please let me know
and write your comment below. I will reply and fix as soon as possible.