Dionne Warwick – Best Favorite Songs (2015) {WEB}

Dionne Warwick - Best Favorite Songs (2015) {WEB}

Dionne Warwick – Best Favorite Songs (2015) {WEB}
Digital Download | FLAC Tracks | Front Cover
FLAC: 482 MB | 3% RAR Recovery
Label: Plaza Mayor Company, Ltd. | Genre: R&B, Pop

Marie Dionne Warrick, known as Dionne Warwick, is an American singer, actress and TV-show host, who became a United Nations Global Ambassador for the Food and Agriculture Organization, and a United States Ambassador of Health.

Having been in a partnership with songwriters Burt Bacharach and Hal David, Warwick ranks among the 40 biggest hit makers of the entire rock era, based on the Billboard Hot 100 Pop Singles Charts. Dionne Warwick is second only to Aretha Franklin as the most-charted female vocalist of all time, with 69 of Warwick’s singles making the Billboard Hot 100 between 1962 and 1998.

Additional Info:
• Source: Qobuz
• Released Date: 2015
• More Biographical, Career & Discography information: Here

Tracklist:
01. I Say A Little Prayer For You (Live) – 5:20
02. Walk On By (Live) – 2:19
03. Alfie (Live) – 3:58
04. Do You Know The Way To San Jose (Live) – 5:12
05. This Girl’s In Love With You (Live) – 2:16
06. I’ll Never Love This Way Again (Live) – 4:24
07. I Never Fall In Love Again (Live) – 2:19
08. That’s What Friend Are For (Live) – 4:57
09. Don’t Make Me Over (Live) – 3:17
10. Anyone Who Had A Heart (Live) – 3:49
11. I’ll Never Fall In Love Again / Message To Michael / The Girl’s In Love With You (Live) – 6:07
12. You’ll Never Get To Heaven / House Is Not A Home (Live) – 4:31
13. Brazilian / Corcovado / Waters Of March / Aquarela Do Brazil (Live) – 7:54
14. Close To You (Live) – 4:01
15. Heart Breaker (Live) – 3:58
16. What The World Needs Now (Live) – 4:15
17. Love Song (Live) – 3:35

[su_accordion]
[su_spoiler title=”Dynamic Range Report” icon=”plus-square-1″ style=”fancy”]
foobar2000 1.3.7 / Dynamic Range Meter 1.1.1
log date: 2015-03-25 22:58:04

——————————————————————————–
Analyzed: Dionne Warwick / Best Favorite Songs
——————————————————————————–

DR Peak RMS Duration Track
——————————————————————————–
DR11 0.00 dB -12.07 dB 5:20 01-I Say A Little Prayer For You
DR10 0.00 dB -10.97 dB 2:19 02-Walk On By
DR10 0.00 dB -12.90 dB 3:58 03-Alfie
DR8 0.00 dB -9.61 dB 5:12 04-Do You Know The Way To San Jose
DR11 0.00 dB -13.39 dB 2:16 05-This Girl’s In Love With You
DR9 0.00 dB -11.08 dB 4:24 06-I’ll Never Love This Way Again
DR9 0.00 dB -10.31 dB 2:19 07-I Never Fall In Love Again
DR8 0.00 dB -10.23 dB 4:57 08-That’s What Friend Are For
DR8 0.00 dB -9.66 dB 3:17 09-Don’t Make Me Over
DR8 0.00 dB -9.61 dB 3:49 10-Anyone Who Had A Heart
DR10 0.00 dB -11.65 dB 6:07 11-I’ll Never Fall In Love Again / Message To Michael / The Girl’s In Love With You
DR10 0.00 dB -13.03 dB 4:31 12-You’ll Never Get To Heaven / House Is Not A Home
DR9 0.00 dB -9.96 dB 7:54 13-Brazilian / Corcovado / Waters Of March / Aquarela Do Brazil
DR9 0.00 dB -10.97 dB 4:01 14-Close To You
DR9 0.00 dB -10.33 dB 3:58 15-Heart Breaker
DR9 0.00 dB -11.13 dB 4:15 16-What The World Needs Now
DR9 0.00 dB -10.99 dB 3:35 17-Love Song
——————————————————————————–

Number of tracks: 17
Official DR value: DR9

Samplerate: 44100 Hz
Channels: 2
Bits per sample: 16
Bitrate: 972 kbps
Codec: FLAC
================================================================================

[/su_spoiler]
[su_spoiler title=”auCDtect Task Manager” icon=”plus-square-1″ style=”fancy”]
———————–

DON’T MODIFY THIS FILE

———————–

PERFORMER: auCDtect Task Manager, ver. 1.6.0 RC1 build 1.6.0.1
Copyright (c) 2008-2010 y-soft. All rights reserved
http://y-soft.org

ANALYZER: auCDtect: CD records authenticity detector, version 0.8.2
Copyright (c) 2004 Oleg Berngardt. All rights reserved.
Copyright (c) 2004 Alexander Djourik. All rights reserved.

FILE: 17. Love Song.flac
Size: 26274583 Hash: 95E218656E42B235E70E5778BB3A25EA Accuracy: -m0
Conclusion: CDDA 100%
Signature: AAE313B2A9A246EEBCD140E77F7A43B11CDCD28A
FILE: 16. What The World Needs Now.flac
Size: 26230290 Hash: EC7F35B1289E6FF8740A0F51F2A40F50 Accuracy: -m0
Conclusion: CDDA 100%
Signature: 548F8DEFD2F365A85409D22522DFF2BE6F191718
FILE: 15. Heart Breaker.flac
Size: 28938856 Hash: 77BBD283809A367CE43611AD96145E06 Accuracy: -m0
Conclusion: CDDA 100%
Signature: F1CBB7887B9EAB93A6496A5FC2C1A1D873A075F0
FILE: 14. Close To You.flac
Size: 27503071 Hash: 70112595E7BB3D1A7A5650A96B5D8D8E Accuracy: -m0
Conclusion: CDDA 100%
Signature: 691D35F786D0821CA60498F1DDC9CC87C10AE9AB
FILE: 13. Brazilian – Corcovado – Waters Of March – Aquarela Do Brazil.flac
Size: 55964558 Hash: B023CE84C464642CA2ADA504A9D66F84 Accuracy: -m0
Conclusion: CDDA 100%
Signature: 79F510F59B64ABF1D92068AF02488E0124D0A54A
FILE: 12. You’ll Never Get To Heaven – House Is Not A Home.flac
Size: 30034932 Hash: 8EB983DEC2E4BDF2102ED1E4066E456C Accuracy: -m0
Conclusion: CDDA 100%
Signature: 21362E4BBF5D6110853F5592026150EB089EB61D
FILE: 11. I’ll Never Fall In Love Again – Message To Michael – The Girl’s In Love With You.flac
Size: 41836766 Hash: EC710929E4BCBAA2BE6BD9E08633D8B5 Accuracy: -m0
Conclusion: CDDA 100%
Signature: 87A3B67636AD1F9D1040A4149CAF26E96B55C1A3
FILE: 10. Anyone Who Had A Heart.flac
Size: 26435283 Hash: 493AB6E0C6A548C76EC5ACDFEC350F80 Accuracy: -m0
Conclusion: CDDA 100%
Signature: F11CC1C22B586F25258AF0C2FDFDCC2BC825CDE8
FILE: 09. Don’t Make Me Over.flac
Size: 23496264 Hash: CEB01DB563CFE3C655A77A16EA553622 Accuracy: -m0
Conclusion: CDDA 100%
Signature: 720CEA97A86528806840573CF60EFC2B87F75270
FILE: 08. That’s What Friend Are For.flac
Size: 32665842 Hash: AF05AF3183A163BA2D37FC0E477BD83C Accuracy: -m0
Conclusion: CDDA 100%
Signature: 34E5C62BC90BAE7A0CC9F605A8D4ADB5441269BB
FILE: 07. I Never Fall In Love Again.flac
Size: 15978141 Hash: B5BBD2FDF8DBDF8D1775B710D2EB80A4 Accuracy: -m0
Conclusion: CDDA 100%
Signature: 1917D9DD20D293E10F6126AE6C6E555A5302D63F
FILE: 06. I’ll Never Love This Way Again.flac
Size: 28430755 Hash: 7CB7EFE32BA00E0EEDBAC358AD66CADB Accuracy: -m0
Conclusion: CDDA 100%
Signature: 4E07AC8BFA37AA030E10DF398ED23D3B7971C2DE
FILE: 05. This Girl’s In Love With You.flac
Size: 13812391 Hash: 1BECC2CA993996E71BB1753A84B3416E Accuracy: -m0
Conclusion: CDDA 100%
Signature: FAE36411CFA17587EAF01948BCDC35F22A0D1273
FILE: 04. Do You Know The Way To San Jose.flac
Size: 36698414 Hash: 5425AB4D7A39A94E10260F6365B75B60 Accuracy: -m0
Conclusion: CDDA 100%
Signature: BD7258C282AC89FE48A0144D90E6D6F5F3D2EA7A
FILE: 03. Alfie.flac
Size: 22295786 Hash: 1558CCFBC48C739FA1694D7AD923F197 Accuracy: -m0
Conclusion: CDDA 100%
Signature: 1C09D570DE0311C8F21A614F7577BFA016F28F31
FILE: 02. Walk On By.flac
Size: 16306593 Hash: D84E7C0A92BC0458EDC4F6A7422FCA03 Accuracy: -m0
Conclusion: CDDA 100%
Signature: 1EADF9C5588022A3D5AD219010F68C8AF37C97C3
FILE: 01. I Say A Little Prayer For You.flac
Size: 37625307 Hash: 5B971C4CB92613AEF2F7A52A1106074F Accuracy: -m0
Conclusion: CDDA 100%
Signature: E09211DF9DBCC13E517A4B2A990C7EF74EF40E62
[/su_spoiler]
[/su_accordion]

Download From
 
LMA__DW.BFS.2015.rar
 
Password: www.LosslessMA.net