Neil Young – Storytone (2014)

Neil Young - Storytone (2014)

Neil Young – Storytone (2014)
EAC Rip | FLAC Tracks + Cue + Log | Full Scans
FLAC: 231 MB | Scans: 42.2 MB | 3% RAR Recovery
Label: Reprise Records | Cat#: 93624 49517 0 | Lenght: 41:37 | Genre: Folk Rock

Storytone is the thirty-fifth studio album by Canadian musician Neil Young, released on November 4, 2014 on Reprise Records. The album was released in two formats: a single disc, which features orchestral and big band arrangements of the songs, and a deluxe edition which includes stripped-back recordings of the songs. Young subsequently released a third version of the album, Mixed Pages of Storytone, merging elements of both, later in the year.

Additional Info:
• Released Date: November 4, 2014
• More info: Here

Tracklist:
01. Plastic Flowers – 04:07
02. Who’s Gonna Stand Up – 04:24
03. I Want to Drive My Car – 03:11
04. Glimmer – 05:01
05. Say Hello to Chicago – 04:58
06. Tumbleweed – 03:38
07. Like You Used to Do – 02:41
08. I’m Glad I Found You – 03:43
09. When I Watch You Sleeping – 05:31
10. All Those Dreams – 04:26

EAC Log
Exact Audio Copy V1.0 beta 1 from 15. November 2010

EAC extraction logfile from 2. November 2014, 20:12

Neil Young / Storytone

Used drive : ASUS DVDRAM GHB1N Adapter: 3 ID: 0

Read mode : Secure
Utilize accurate stream : Yes
Defeat audio cache : Yes
Make use of C2 pointers : No

Read offset correction : 6
Overread into Lead-In and Lead-Out : No
Fill up missing offset samples with silence : Yes
Delete leading and trailing silent blocks : No
Null samples used in CRC calculations : Yes
Used interface : Native Win32 interface for Win NT & 2000
Gap handling : Appended to previous track

Used output format : User Defined Encoder
Selected bitrate : 768 kBit/s
Quality : High
Add ID3 tag : No
Command line compressor : C:\Program Files (x86)\Exact Audio Copy\FLAC\FLAC.EXE
Additional command line options : -8 -V -T “ARTIST=%a” -T “TITLE=%t” -T “ALBUM=%g” -T “DATE=%y” -T “TRACKNUMBER=%n” -T “TOTALTRACKS=%x” -T “GENRE=%m” -T “ALBUMARTIST=%v” -T “ALBUM ARTIST=%v” -T “COMMENT=EAC Secure Mode, Test & Copy, AccurateRip, FLAC -8” %s

TOC of the extracted CD

Track | Start | Length | Start sector | End sector
———————————————————
1 | 0:00.00 | 4:06.28 | 0 | 18477
2 | 4:06.28 | 4:23.39 | 18478 | 38241
3 | 8:29.67 | 3:10.68 | 38242 | 52559
4 | 11:40.60 | 5:01.04 | 52560 | 75138
5 | 16:41.64 | 4:57.42 | 75139 | 97455
6 | 21:39.31 | 3:38.07 | 97456 | 113812
7 | 25:17.38 | 2:40.67 | 113813 | 125879
8 | 27:58.30 | 3:42.46 | 125880 | 142575
9 | 31:41.01 | 5:30.63 | 142576 | 167388
10 | 37:11.64 | 4:25.31 | 167389 | 187294

Track 1

Filename D:\My Rips\Neil Young\Neil Young – Storytone (2014) [FLAC] {Reprise 93624 49517 0}\01 – Plastic Flowers.wav

Pre-gap length 0:00:02.00

Peak level 100.0 %
Extraction speed 0.9 X
Track quality 99.9 %
Test CRC 521F50ED
Copy CRC 521F50ED
Track not present in AccurateRip database
Copy OK

Track 2

Filename D:\My Rips\Neil Young\Neil Young – Storytone (2014) [FLAC] {Reprise 93624 49517 0}\02 – Who’s Gonna Stand Up.wav

Peak level 100.0 %
Extraction speed 1.1 X
Track quality 100.0 %
Test CRC 4886BBE1
Copy CRC 4886BBE1
Track not present in AccurateRip database
Copy OK

Track 3

Filename D:\My Rips\Neil Young\Neil Young – Storytone (2014) [FLAC] {Reprise 93624 49517 0}\03 – I Want to Drive My Car.wav

Peak level 100.0 %
Extraction speed 1.0 X
Track quality 99.9 %
Test CRC 77328EEE
Copy CRC 77328EEE
Track not present in AccurateRip database
Copy OK

Track 4

Filename D:\My Rips\Neil Young\Neil Young – Storytone (2014) [FLAC] {Reprise 93624 49517 0}\04 – Glimmer.wav

Pre-gap length 0:00:02.40

Peak level 86.4 %
Extraction speed 1.3 X
Track quality 100.0 %
Test CRC 8027151E
Copy CRC 8027151E
Track not present in AccurateRip database
Copy OK

Track 5

Filename D:\My Rips\Neil Young\Neil Young – Storytone (2014) [FLAC] {Reprise 93624 49517 0}\05 – Say Hello to Chicago.wav

Pre-gap length 0:00:01.44

Peak level 100.0 %
Extraction speed 1.5 X
Track quality 100.0 %
Test CRC 13A47170
Copy CRC 13A47170
Track not present in AccurateRip database
Copy OK

Track 6

Filename D:\My Rips\Neil Young\Neil Young – Storytone (2014) [FLAC] {Reprise 93624 49517 0}\06 – Tumbleweed.wav

Pre-gap length 0:00:00.08

Peak level 71.1 %
Extraction speed 1.5 X
Track quality 100.0 %
Test CRC 67A713D6
Copy CRC 67A713D6
Track not present in AccurateRip database
Copy OK

Track 7

Filename D:\My Rips\Neil Young\Neil Young – Storytone (2014) [FLAC] {Reprise 93624 49517 0}\07 – Like You Used to Do.wav

Pre-gap length 0:00:01.05

Peak level 100.0 %
Extraction speed 1.5 X
Track quality 100.0 %
Test CRC C4D5E955
Copy CRC C4D5E955
Track not present in AccurateRip database
Copy OK

Track 8

Filename D:\My Rips\Neil Young\Neil Young – Storytone (2014) [FLAC] {Reprise 93624 49517 0}\08 – I’m Glad I Found You.wav

Pre-gap length 0:00:01.10

Peak level 100.0 %
Extraction speed 1.6 X
Track quality 100.0 %
Test CRC 2331BCFE
Copy CRC 2331BCFE
Track not present in AccurateRip database
Copy OK

Track 9

Filename D:\My Rips\Neil Young\Neil Young – Storytone (2014) [FLAC] {Reprise 93624 49517 0}\09 – When I Watch You Sleeping.wav

Pre-gap length 0:00:03.04

Peak level 100.0 %
Extraction speed 1.8 X
Track quality 100.0 %
Test CRC 3664F23A
Copy CRC 3664F23A
Track not present in AccurateRip database
Copy OK

Track 10

Filename D:\My Rips\Neil Young\Neil Young – Storytone (2014) [FLAC] {Reprise 93624 49517 0}\10 – All Those Dreams.wav

Pre-gap length 0:00:00.14

Peak level 100.0 %
Extraction speed 1.8 X
Track quality 100.0 %
Test CRC 2DF3B541
Copy CRC 2DF3B541
Track not present in AccurateRip database
Copy OK

None of the tracks are present in the AccurateRip database

No errors occurred

End of status report

==== Log checksum 92ECE2A36D48C0F7EE42365D4AEE8708F1FFC09CD2E92FE788345631537BDD46 ====

CUETools 2.1.5
[CUETools log; Date: 3/16/2015 7:56:38 PM; Version: 2.1.5]
[CTDB TOCID: S3Hs6TAXGHW5oSybBmWRXVHbbu0-] found.
Track | CTDB Status
1 | (139/139) Accurately ripped
2 | (139/139) Accurately ripped
3 | (139/139) Accurately ripped
4 | (139/139) Accurately ripped
5 | (139/139) Accurately ripped
6 | (139/139) Accurately ripped
7 | (139/139) Accurately ripped
8 | (139/139) Accurately ripped
9 | (139/139) Accurately ripped
10 | (139/139) Accurately ripped
[AccurateRip ID: 000f8bcc-007c422c-5f09c10a] found.
Track [ CRC | V2 ] Status
01 [dd65d622|3c44ca07] (006+096/105) Accurately ripped
02 [c190a21c|a32d0581] (006+096/105) Accurately ripped
03 [ecb9a5ca|f8650431] (006+096/105) Accurately ripped
04 [6b06b118|84cb10a4] (006+095/104) Accurately ripped
05 [20405b1a|13c9300b] (006+095/104) Accurately ripped
06 [709e0cde|8ab07387] (006+096/105) Accurately ripped
07 [531b460d|98f7c75e] (006+095/104) Accurately ripped
08 [bc3a93b5|4bc4e603] (006+095/104) Accurately ripped
09 [86b6b248|a76af136] (006+096/105) Accurately ripped
10 [d957306d|e2c06763] (006+095/104) Accurately ripped
Offsetted by -12:
01 [38ba7b35] (000/105) No match (V2 was not tested)
02 [8c895451] (000/105) No match (V2 was not tested)
03 [90730cca] (000/105) No match (V2 was not tested)
04 [59dcde38] (000/104) No match (V2 was not tested)
05 [6e021868] (000/104) No match (V2 was not tested)
06 [b3e844f9] (000/105) No match (V2 was not tested)
07 [141da36e] (000/104) No match (V2 was not tested)
08 [995232df] (000/104) No match (V2 was not tested)
09 [f0cb6d4c] (000/105) No match (V2 was not tested)
10 [caab708d] (000/104) No match (V2 was not tested)
Offsetted by 6:
01 [4b88a76c] (000/105) No match (V2 was not tested)
02 [dd4fc836] (000/105) No match (V2 was not tested)
03 [9adcf24a] (000/105) No match (V2 was not tested)
04 [f3659a88] (000/104) No match (V2 was not tested)
05 [f9297ca9] (000/104) No match (V2 was not tested)
06 [344d51c7] (000/105) No match (V2 was not tested)
07 [ae9c5bc5] (000/104) No match (V2 was not tested)
08 [cdd5c3ed] (000/104) No match (V2 was not tested)
09 [607c545a] (000/105) No match (V2 was not tested)
10 [615310c9] (000/104) No match (V2 was not tested)

Track Peak [ CRC32 ] [W/O NULL] [ LOG ]
— 100.0 [3504AAF0] [9C3D9435]
01 100.0 [521F50ED] [6EB1FEDD] CRC32
02 100.0 [4886BBE1] [A2B45AB6] CRC32
03 100.0 [77328EEE] [2E485C58] CRC32
04 86.4 [8027151E] [22C667AB] CRC32
05 100.0 [13A47170] [AC681E3E] CRC32
06 71.1 [67A713D6] [4BF9C462] CRC32
07 100.0 [C4D5E955] [75FC9F42] CRC32
08 100.0 [2331BCFE] [1AF522AF] CRC32
09 100.0 [3664F23A] [067EC38E] CRC32
10 100.0 [2DF3B541] [9D2FDE44] CRC32

Dynamic Range Report
foobar2000 1.3.7 / Dynamic Range Meter 1.1.1
log date: 2015-03-16 19:57:16

——————————————————————————–
Analyzed: Neil Young / Storytone
——————————————————————————–

DR Peak RMS Duration Track
——————————————————————————–
DR11 0.00 dB -13.80 dB 4:06 01-Plastic Flowers
DR10 0.00 dB -13.62 dB 4:24 02-Who’s Gonna Stand Up
DR11 0.00 dB -13.77 dB 3:11 03-I Want to Drive My Car
DR11 -1.27 dB -16.41 dB 5:01 04-Glimmer
DR10 0.00 dB -12.27 dB 4:58 05-Say Hello to Chicago
DR10 -2.95 dB -16.88 dB 3:38 06-Tumbleweed
DR11 0.00 dB -13.74 dB 2:41 07-Like You Used to Do
DR10 0.00 dB -13.23 dB 3:43 08-I’m Glad I Found You
DR10 0.00 dB -13.01 dB 5:31 09-When I Watch You Sleeping
DR11 0.00 dB -14.52 dB 4:25 10-All Those Dreams
——————————————————————————–

Number of tracks: 10
Official DR value: DR11

Samplerate: 44100 Hz
Channels: 2
Bits per sample: 16
Bitrate: 672 kbps
Codec: FLAC
================================================================================

Back & CD label

imagebam.com imagebam.com

Download From
LMA__NY.S.2014__lossless.rar
LMA__NY.S.2014__scans.rar
 
Password: www.LosslessMA.net
 
If you encounter broken links or other problem about this publication, please let me know
and write your comment below. I will reply and fix as soon as possible.
 
You can also see Neil Young – Discography (1968 – 2014)