Europe – War of Kings (2015) {Deluxe Edition, WEB}

Europe - War of Kings (2015) {Deluxe Edition, WEB}

Europe – War of Kings (2015) {Deluxe Edition, WEB}
WEB Download | FLAC Tracks | Front Cover
Total Size: 360 MB | 3% RAR Recovery
Label: UDR Music | Genre: Hard Rock

Swedish rock legends Europe will release their 10th album, War of Kings, in March 2015. Recorded at the brand new PanGaia Studios in Stockholm, Sweden, produced by Dave Cobb (Rival Sons) and engineered by John Netti, War of Kings sees the classic rocking quintet confidently creating 11 monsterously melodic, yet hard-hitting, classic rock’n’roll standouts for their fervent global audience.

Additional Info:
• Source: WEB, Qobuz
• Released Date: March 2, 2015

Tracklist:
01. War Of Kings – 04:36
02. Hole In My Pocket – 03:43
03. Second Day – 05:24
04. Praise You – 04:35
05. Nothin’ To Ya – 03:55
06. California 405 – 04:32
07. Days Of Rock n Roll – 03:06
08. Children Of The Mind – 04:31
09. Rainbow Bridge – 03:16
10. Angels (With Broken Hearts) – 05:20
11. Light Me Up – 06:10
12. Vasastan (Instrumental) – 05:12

Dynamic Range Report
foobar2000 1.3.7 / Dynamic Range Meter 1.1.1
log date: 2015-03-12 04:35:38

——————————————————————————–
Analyzed: Europe / War Of Kings (Deluxe Edition)
——————————————————————————–

DR Peak RMS Duration Track
——————————————————————————–
DR7 -0.68 dB -8.81 dB 4:36 01-War Of Kings
DR6 -0.58 dB -7.86 dB 3:42 02-Hole In My Pocket
DR7 -0.28 dB -9.56 dB 5:24 03-Second Day
DR7 -0.74 dB -9.88 dB 4:34 04-Praise You
DR6 -0.65 dB -8.33 dB 3:55 05-Nothin’ To Ya
DR8 -0.66 dB -9.52 dB 4:31 06-California 405
DR6 -0.76 dB -8.38 dB 3:05 07-Days Of Rock n Roll
DR6 -0.73 dB -8.50 dB 4:31 08-Children Of The Mind
DR7 -0.55 dB -8.71 dB 3:16 09-Rainbow Bridge
DR7 -0.71 dB -10.44 dB 5:19 10-Angels (With Broken Hearts)
DR7 -0.40 dB -8.89 dB 6:10 11-Light Me Up
DR7 -0.77 dB -11.33 dB 5:11 12-Vasastan (Instrumental)
——————————————————————————–

Number of tracks: 12
Official DR value: DR7

Samplerate: 44100 Hz
Channels: 2
Bits per sample: 16
Bitrate: 735 kbps
Codec: FLAC
================================================================================

auCDtect Task Manager
———————–

DON’T MODIFY THIS FILE

———————–

PERFORMER: auCDtect Task Manager, ver. 1.6.0 RC1 build 1.6.0.1
Copyright (c) 2008-2010 y-soft. All rights reserved
http://y-soft.org

ANALYZER: auCDtect: CD records authenticity detector, version 0.8.2
Copyright (c) 2004 Oleg Berngardt. All rights reserved.
Copyright (c) 2004 Alexander Djourik. All rights reserved.

FILE: 12 – Vasastan (Instrumental).flac
Size: 28699371 Hash: 022EAFC0DD513C1C89470011BE51A848 Accuracy: -m0
Conclusion: CDDA 100%
Signature: 6ED7EB3970B8754A0F7EA73D23973EEB37D41763
FILE: 11 – Light Me Up.flac
Size: 45039187 Hash: E58091764EFFA1F77431AF55CB0E6384 Accuracy: -m0
Conclusion: CDDA 100%
Signature: F67149386F2AB7A7E6B3CF54EDA3BBECC2DFFC6C
FILE: 10 – Angels (With Broken Hearts).flac
Size: 33623762 Hash: 23A013C72A4F1104A794823BAF981796 Accuracy: -m0
Conclusion: CDDA 100%
Signature: BB6FBF17769B01DBCC51A2F8FF622A46C14866B2
FILE: 09 – Rainbow Bridge.flac
Size: 24422460 Hash: 62B4EABDCD102892BE304C885B4D899F Accuracy: -m0
Conclusion: CDDA 100%
Signature: 4DC9DE9E309F2E93503CA17E78D1CC4323DB8113
FILE: 08 – Children Of The Mind.flac
Size: 32954367 Hash: 14953A2A2763707D4DA1514B157A9247 Accuracy: -m0
Conclusion: CDDA 100%
Signature: D4356C5314097F8336E5516D105B412A3F5CEC70
FILE: 07 – Days Of Rock n Roll.flac
Size: 22604734 Hash: B32B03F5AE958AA23DF6A59A17491BAE Accuracy: -m0
Conclusion: CDDA 100%
Signature: DA128B87424172481B1456222B8D7635F884DD34
FILE: 06 – California 405.flac
Size: 32249658 Hash: 9D6C843FD946DA938548743B0FD2E835 Accuracy: -m0
Conclusion: CDDA 100%
Signature: E13287BC7319667BAC2363A18F25395060F478D1
FILE: 05 – Nothin’ To Ya.flac
Size: 28753600 Hash: C97F1F936CCB643425E440491E80B9CB Accuracy: -m0
Conclusion: CDDA 100%
Signature: 0A5E138ACBB69C1D4D09938BB6D11301A5147299
FILE: 04 – Praise You.flac
Size: 30073436 Hash: 1586946587A93658701D4DD367EF7FF3 Accuracy: -m0
Conclusion: CDDA 100%
Signature: B5BAB3B3DD1A645AE40404C76E761B92D21B4AD4
FILE: 03 – Second Day.flac
Size: 37547111 Hash: 209892AD62FE0594138F9C6EB6F1E293 Accuracy: -m0
Conclusion: CDDA 100%
Signature: 3E2541E63E65DA7D71B6CD228E1DED70F834CFD3
FILE: 02 – Hole In My Pocket.flac
Size: 28349146 Hash: 01A388B59AFD4DDA6F9C7355CC320845 Accuracy: -m0
Conclusion: CDDA 100%
Signature: DDA88BB2609BE9BA8C11785B46F97291C0EF7416
FILE: 01 – War Of Kings.flac
Size: 32979065 Hash: 0A3E299A4720D4D525EDB76F91E649D6 Accuracy: -m0
Conclusion: CDDA 100%
Signature: E2DB419DAA0C22B99B310A40F9B4FEE8CCFE1756

DOWNLOAD FROM
 
LMA_EUROPE.2015.WOK.DE_WEB.rar
 
Password: www.LosslessMA.net
 
If you encounter broken links or other problem about this publication, please let me know
and write your comment below. I will reply and fix as soon as possible.