Toto – Toto XIV (2015) {CD + Bonus DVD}

Toto - Toto XIV (2015) {CD + Bonus DVD}

Toto – Toto XIV (2015) {CD + Bonus DVD}
EAC Rip | FLAC Image + Cue + Log | Full Scans @300 dpi, JPG, Included
DVD5 | VIDEO_TS | Video: NTSC 4:3 (720×480) VBR | Audio: English, Dolby AC3, 2ch
FLAC: 440 MB | DVD: 1.84 GB | 3% RAR Recovery
Label: Frontiers Records | Cat#: FR CD 682 | Genre: AOR, Hard Rock

TOTO XIV is the band s first album of new material since 2006 s Falling In Between. However, the band personally considers the new album to be the true follow-up to TOTO IV, which made the band global superstars. The album is a realized vision three plus decades in the making, exhibiting world-class musicianship, masterful arrangements, topical lyrical commentary, and melodies that the collective genius of Lukather, Paich, Porcaro, Williams and their assembled band-mates bring to life. The band s current line-up includes original members Steve Lukather, David Paich and Steve Porcaro and sees the return to the fold of original bass player, David Hungate. Joseph Williams (singer on The Seventh One and Fahrenheit ) returns to handle lead vocals, while Keith Carlock (Steely Dan, Sting) now sits behind the drumkit.

Personnel / Credits:
• Steve Lukather – vocals, guitars, bass on tracks 5, 6, 11
• Joseph Williams – lead vocals
• David Paich – vocals, keyboards
• Steve Porcaro – vocals, keyboards
• Keith Carlock – drums

Additional Info:
• Recorded Date: December 2013 – December 2014
• Released Date: March 20, 2015 (Europe) / March 23, 2015 (UK, Oceania, North America)
• Producer: C. J. Vanston, Steve Lukather, David Paich, Steve Porcaro, Joseph Williams
• More Information: Here

Tracklist:
01. Running Out Of Time – 04:06
02. Burn – 04:56
03. Holy War – 05:24
04. 21St Century Blues – 06:08
05. Orphan – 03:55
06. Unknown Soldier – 05:06
07. The Little Things – 04:34
08. Chinatown – 05:08
09. All The Tears – 05:09
10. Fortune – 04:46
11. Great Expectations – 06:48

[su_accordion]
[su_spoiler title=”EAC Log” icon=”plus-square-1″ style=”fancy”]
Exact Audio Copy V1.0 beta 3 from 29. August 2011

EAC extraction logfile from 14. March 2015, 0:22

Toto / Toto XIV

Used drive : PLEXTOR DVDR PX-860A Adapter: 4 ID: 0

Read mode : Secure
Utilize accurate stream : Yes
Defeat audio cache : Yes
Make use of C2 pointers : No

Read offset correction : 96
Overread into Lead-In and Lead-Out : No
Fill up missing offset samples with silence : Yes
Delete leading and trailing silent blocks : No
Null samples used in CRC calculations : Yes
Used interface : Installed external ASPI interface

Used output format : User Defined Encoder
Selected bitrate : 128 kBit/s
Quality : High
Add ID3 tag : Yes
Command line compressor : G:\Program Files (x86)\Exact Audio Copy\Flac\flac.exe
Additional command line options : -V -8 -T “Date=%year%” -T “Genre=%genre%” %source%

TOC of the extracted CD

Track | Start | Length | Start sector | End sector
———————————————————
1 | 0:00.00 | 4:06.06 | 0 | 18455
2 | 4:06.06 | 4:56.24 | 18456 | 40679
3 | 9:02.30 | 5:23.74 | 40680 | 64978
4 | 14:26.29 | 6:08.02 | 64979 | 92580
5 | 20:34.31 | 3:55.62 | 92581 | 110267
6 | 24:30.18 | 5:06.30 | 110268 | 133247
7 | 29:36.48 | 4:34.40 | 133248 | 153837
8 | 34:11.13 | 5:07.73 | 153838 | 176935
9 | 39:19.11 | 5:09.53 | 176936 | 200163
10 | 44:28.64 | 4:46.36 | 200164 | 221649
11 | 49:15.25 | 6:48.08 | 221650 | 252257

Range status and errors

Selected range

Filename D:\MUSIC\Toto – Toto XIV.wav

Peak level 97.7 %
Extraction speed 2.8 X
Range quality 100.0 %
Test CRC B7B704F6
Copy CRC B7B704F6
Copy OK

No errors occurred

AccurateRip summary

Track 1 not present in database
Track 2 not present in database
Track 3 not present in database
Track 4 not present in database
Track 5 not present in database
Track 6 not present in database
Track 7 not present in database
Track 8 not present in database
Track 9 not present in database
Track 10 not present in database
Track 11 not present in database

None of the tracks are present in the AccurateRip database

End of status report

==== Log checksum C34AD74E2566975C5B32F6658A12FAA1D27F79209251A686DF14639F009479D9 ====
[/su_spoiler]
[su_spoiler title=”CUETools 2.1.5″ icon=”plus-square-1″ style=”fancy”]
[CUETools log; Date: 3/24/2015 10:58:59 PM; Version: 2.1.5]
[CTDB TOCID: 3_BqikswkD9SZVzinw0zjmxkwJQ-] found.
Track | CTDB Status
1 | (38/38) Accurately ripped
2 | (38/38) Accurately ripped
3 | (38/38) Accurately ripped
4 | (38/38) Accurately ripped
5 | (38/38) Accurately ripped
6 | (38/38) Accurately ripped
7 | (38/38) Accurately ripped
8 | (38/38) Accurately ripped
9 | (38/38) Accurately ripped
10 | (38/38) Accurately ripped
11 | (38/38) Accurately ripped
[AccurateRip ID: 00165ae2-00c2cbb4-a00d230b] disk not present in database.

Track Peak [ CRC32 ] [W/O NULL] [ LOG ]
— 97.7 [B7B704F6] [BAA0DB1C] CRC32
01 97.7 [835DDCA6] [4C3FD7E2]
02 97.7 [222FF07F] [7752C552]
03 97.7 [5A23C6C1] [13AECE0F]
04 97.7 [D5C25C84] [4A03D675]
05 97.7 [E8A54236] [CE972DF6]
06 97.7 [2B6CE776] [BDA0E8C9]
07 97.7 [F3616212] [CCF34ED8]
08 97.7 [EAC6C88F] [1E9F3064]
09 97.7 [F3A1C54E] [54E925F7]
10 97.7 [45E670F0] [1ADCE81A]
11 97.7 [B581B311] [76E6586A]
[/su_spoiler]
[su_spoiler title=”Back & CD label” icon=”plus-square-1″ style=”fancy”]

imagebam.com imagebam.com

[/su_spoiler]
 
Bonus DVD:
01. Making of Documentary – 32:24

[su_spoiler title=”DVD Info” icon=”plus-square-1″ style=”fancy”]
Title: TOTO – XIV (Bonus DVD)
Size: 1.79 Gb ( 1 882 168,00 KBytes ) – DVD-5
Enabled regions: 1, 2, 3, 4, 5, 6, 8

VTS_01 :
Play Length: 00:00:32+{00:00:32}+{00:00:32}
Video: NTSC 16:9 (720×480) VBR, Auto Letterboxed
Audio:
English (Dolby AC3, 2 ch)

VTS_02 :
Play Length: 00:28:53+{00:28:53}+{00:28:53}
Video: NTSC 16:9 (720×480) VBR, Auto Letterboxed
Audio:
English (Dolby AC3, 2 ch)

VTS_03 :
Play Length: 00:03:31+{00:03:31}+{00:03:31}
Video: NTSC 16:9 (720×480) VBR, Auto Letterboxed
Audio:
English (Dolby AC3, 2 ch)[/su_spoiler]
[su_spoiler title=”Screenshots” icon=”plus-square-1″ style=”fancy”]

imagebam.com imagebam.com imagebam.com imagebam.com imagebam.com imagebam.com

[/su_spoiler]
[/su_accordion]

Download From
LMA__T.XIV.2015.rar
LMA__T.XIV.2015__DVD.part1.rar
LMA__T.XIV.2015__DVD.part2.rar
LMA__T.XIV.2015__DVD.part3.rar
 
Password: www.LosslessMA.net
 
If you encounter broken links or other problem about this publication, please let me know
and write your comment below. I will reply and fix as soon as possible.