VA – The Cruisin’ Story 1956-1960 (2012)

VA - The Cruisin' Story 1956-1960 (2012)

VA – The Cruisin’ Story 1956-1960 (2012)
EAC Rip | 10xCD | FLAC Image + Cue + Log | Full Scans @300 dpi, JPG
FLAC: 2.95 GB | Scans: 21.4 MB | 3% RAR Recovery
Label: One Day Music | Cat#: DAY5CD502 | Genre: Rock & Roll, Rockabilly

250 Original Recordings on 10 CDs

—————————————————————————-

Additional Info:
• Released Date: March 27, 2012

The Cruisin’ Story – 1956
Disc 1
01. Chuck Berry – Roll Over Beethoven – 02:25
02. Frankie Lymon & The Teenagers – Why Do Fools Fall In Love – 02:18
03. The Teen Queens – Eddie My Love – 03:12
04. Charlie Feathers – One Hand Loose – 02:22
05. The Mellow Kings – Tonite Tonite – 02:32
06. Little Richard – The Girl Can’t Help It – 02:26
07. The Cadillacs – Speedo – 02:19
08. The Five Keys – Out Of Sight, Out Of Mind – 02:16
09. Mac Curtis – That Ain’t Nothin’ But Right – 02:13
10. Bill Haley & His Comets – Rock A Beatin’ Boogie – 02:20
11. Buddy Holly – Blue Days, Black Nights – 02:05
12. Lew Williams – Bop Bop Ba Doo Bop – 02:07
13. The Moonglows – See Saw – 02:26
14. Carl Perkins – Blue Suede Shoes – 02:16
15. The Cleftones – Little Girl Of Mine – 03:13
16. Elvis Presley – Don’t Be Cruel – 02:02
17. The Magnificents – Up On The Mountain – 02:49
18. The Dells – Oh What A Night – 02:55
19. Gene Vincent & The Blue Caps – Be-Bop-A-Lula – 02:35
20. Joe Turner – Corinna, Corinna – 02:54
21. Jerry Lee Lewis – Crazy Arms – 02:45
22. The Drifters – Soldier Of Fortune – 02:36
23. Johnny Cash – Get Rhythm – 02:13
24. LaVern Baker – Jim Dandy – 02:13
25. The Platters – My Prayer – 02:46
Disc 2
01. Frankie Lymon & The Teenagers – The ABC’s Of Love – 01:56
02. Little Richard – Tutti Frutti – 02:24
03. Carl Perkins – Boppin’ The Blues – 02:49
04. Bill Doggett – Honky Tonk (Part I) – 03:07
05. Charlie Feathers – Bottle To The Baby – 02:19
06. Bill Haley & His Comets – Rip It Up – 02:26
07. Bo Diddley – Who Do You Love? – 02:30
08. The Cadets – Stranded In The Jungle – 03:14
09. Chuck Berry – No Money Down – 02:58
10. Warren Smith – Ubangi Stomp – 01:59
11. Chuck Willis – It’s Too Late – 02:36
12. Georgia Gibbs – Tra La La – 01:59
13. Gene Vincent – Woman Love – 02:32
14. The Del-Vikings – Come Go With Me – 02:40
15. Elvis Presley – Hound Dog – 02:16
16. Fats Domino – When My Dreamboat Comes Home – 02:17
17. The Five Satins – In The Still Of The Night – 03:04
18. Ray Charles – Hallelujeh I Love Her So – 02:35
19. Freddie Bell & The Bellboys – Giddy Up A Ding Dong – 02:01
20. The Clovers – Devil Or Angel – 02:24
21. Johnny Cash – I Walk The Line – 02:43
22. The Platters – The Great Pretender – 02:40
23. Little William John – Fever – 02:42
24. Roy Orbison – Ooby Dooby – 02:13
25. Jesse Blevin – Goodnight My Love – 03:15

The Cruisin’ Story – 1957
Disc 1
01. Dale Hawkins – Susie Q – 02:18
02. The Tune Weavers – Happy, Happy Birthday Baby – 02:19
03. Chuck Berry – School Day (Ring, Ring Goes The Bell) – 02:42
04. The Heartbeats – A Thousand Miles Away – 02:26
05. Buddy Knox – Party Doll – 02:12
06. Bo Diddley – Mona – 02:21
07. Buddy Holly – Peggy Sue – 02:29
08. Joe Bennett & The Sparletones – Black Slacks – 02:05
09. Eddie Cochram – Drive In Show – 02:02
10. Fats Domino – I’m Walkin’ – 02:07
11. Elvis Presley – Got A Lot Of Livin’ To Do – 02:33
12. Wanda Jackson – Baby Loves Him – 02:00
13. Gene Vincent – Lotta Lovin’ – 02:09
14. Lavern Baker – Jim Dandy Got Married – 02:09
15. Huey ‘Piano’ Smith & The Clowns – Rockin’ Pnuemonia & The Boogie Woogie Flu – 02:16
16. Patsy Cline – Walking After Midnight – 02:36
17. Little Joe & The Thrillers – Peanuts – 02:25
18. Paul Anka – Diana – 02:26
19. The Diamonds – The Stroll – 02:25
20. The Crickets – That’ll Be The Day – 02:17
21. Little Richard – Send Me Some Lovin’ – 02:20
22. Elvis Presley – Teddy Bear – 01:47
23. The Pastels – Been So Long – 02:42
24. Ricky Nelson – Stood Up – 01:53
25. The Spaniels – Goodnight, Sweetheart, Goodnight – 02:43
Disc 2
01. The Diamonds – Little Darlin’ – 02:09
02. Johnnie & Joe – Over The Mountain, Across The Sea – 02:17
03. Larry Williams – Bony Maronie – 03:07
04. The Five Satins – To The Aisle – 02:45
05. Jimmie Rodgers – Honeycomb – 02:16
06. The Bobbettes – Mr Lee – 02:16
07. Carl Perkins – Matchbox – 02:09
08. The Crickets – Not Fade Away – 02:17
09. The Del-Vikings – Whispering Bells – 02:28
10. Elvis Presley – Jailhouse Rock – 02:36
11. The Everly Brothers – Bye Bye Love – 02:19
12. Sam Cooke – You Send Me – 02:44
13. Frankie Lymon & The Teenagers – Goody Goody – 02:12
14. Jackie Wilson – Reet Petite – 02:44
15. Lee Andrews & The Hearts – Long Lonely Nights – 02:52
16. Brenda Lee – Dynamite – 02:03
17. Little Richard – Lucille – 02:25
18. Marty Robbins – A White Sport Coat (And A Pink Carnation) – 02:31
19. The Rays – Daddy Cool – 02:43
20. Ricky Nelson – Be Bop Baby – 02:04
21. The Velours – Can I Come Over Tonight? – 02:22
22. The Drifters – Fools Fall In Love – 02:32
23. Thurston Harris – Little Bitty Pretty One – 02:24
24. Ruth Brown – Lucky Lips – 02:09
25. The ‘5’ Royales – Dedicated To The One I Love – 02:53

The Cruisin’ Story – 1958
Disc 1
01. Danny & The Juniors – At The Hop – 02:33
02. The Champs – Tequila – 02:12
03. The Monotones – Book Of Love – 02:21
04. Chuck Berry – Rock And Roll Music – 02:32
05. Jimmie Rodgers – Kisses Sweeter Than Wine – 02:21
06. Buddy Holly – Rave On – 01:50
07. The Collins Kids – Rock Boppin’ Baby – 02:20
08. Eddie Cochran – Summertime Blues – 01:57
09. The Royal Teens – Short Shorts – 02:40
10. Ricky Nelson – Poor Little Fool – 02:32
11. Connie Francis – Stupid Cupid – 02:15
12. Jody Reynolds – Endless Sleep – 02:26
13. The Five Discs – I Remember – 02:02
14. Little Richard – Good Golly Miss Molly – 02:11
15. Huey ‘Piano’ Smith & The Clowns – High Blood Pressure – 02:48
16. The Crickets – It’s So Easy – 02:11
17. Tommy Edwards – It’s All In The Game – 02:38
18. The Spaniels – Stormy Weather – 02:33
19. The Chordettes – Lollipop – 02:11
20. The Edsels – Rama Lama Ding Dong – 02:27
21. Wanda Jackson – Let’s Have A Party – 02:09
22. Elvis Presley – One Night – 02:31
23. The Skyliners – Since I Don’t Have You – 02:38
24. Brenda Lee – Ring-A-My-Phone – 02:01
25. The Olympics – Western Movies – 02:22
Disc 2
01. The Big Bopper – Chantilly Lace – 02:26
02. Bobby Freeman – Do You Wanna Dance? – 02:37
03. Bobby Day – Rockin’ Robin – 02:36
04. The Silhouettes – Get A Job – 02:47
05. Harvey & The Moonglows – Ten Commandments Of Love – 04:06
06. Duane Eddy – Rebel Rouser – 02:24
07. The Everly Brothers – All I Have To Do Is Dream – 02:21
08. The Platters – Smoke Gets In Your Eyes – 02:40
09. Eddie Cochran – C’mon Everybody – 01:56
10. Chuck Berry – Reelin’ & Rockin’ – 03:18
11. Ritchie Valens – Come On, Let’s Go – 02:04
12. Bill Haley & His Comets – Corrine, Corrina – 02:27
13. Robin Luke – Susie Darlin’ – 02:39
14. Janis Martin – Cracker Jack – 02:08
15. The Drifters – Drip Drop – 02:33
16. Elvis Presley – Wear My Ring Around Your Neck – 02:16
17. Conway Twitty – It’s Only Make Believe – 02:13
18. Jan & Dean – Jennie Lee – 02:03
19. Hank Mizell – Jungle Rock – 02:45
20. Cliff Richard & The Shadows – Move It – 02:23
21. The Kodaks – Oh Gee, Oh Gosh – 02:52
22. Chuck Berry – Johnny B Goode – 02:42
23. The Capris – There’s A Moon Out Tonight – 02:14
24. Marvin Rainwater – Whole Lotta Woman – 02:38
25. The Platters – Twilight Time – 02:54

The Cruisin’ Story – 1959
Disc 1
01. The Olympics – (Baby) Hully Gully – 02:05
02. Big Jay Mcneely – There Is Something On Your Mind – 03:22
03. Chuck Berry – Almost Grown – 02:21
04. Dinah Washington – What A Difference A Day Makes – 02:29
05. Bo Diddley – Say Man – 03:12
06. The Crests – Sixteen Candles – 02:53
07. Lloyd Price – Personality – 02:36
08. Brook Benton – It’s Just A Matter Of Time – 02:28
09. Phil Phillips – Sea Of Love – 02:23
10. Wilbert Harrison – Kansas City – 02:22
11. The Flamingos – I Only Have Eyes For You – 03:12
12. Bobby Darin – Mack The Knife – 03:09
13. The Drifters – There Goes My Baby – 02:09
14. The Coasters – Poison Ivy – 02:42
15. The Clovers – Love Potion No. 9 – 01:53
16. Jimmy Jones – Handy Man – 02:01
17. Dion & The Belmonts – A Teenager In Love – 02:37
18. The Fleetwoods – Come Softly To Me – 02:25
19. The Shirelles – Dedicated To The One I Love – 02:02
20. Bobby Darin – Dream Lover – 02:31
21. Ricky Nelson – It’s Late – 01:59
22. Santo & Johnny – Sleep Walk – 02:23
23. Branda Lee – Sweet Nothin’s – 02:25
24. Dee Clark – Hey Little Girl – 01:53
25. Elvis Presley – A Big Hunk O’ Love – 02:06
Disc 2
01. Eddie Cochran – Somethin’ Else – 02:06
02. Chuck Berry – Little Queenie – 02:42
03. Elvis Presley – A Fool Such As I – 02:40
04. Duane Eddy – Forty Miles Of Bad Road – 02:02
05. Chuck Berry – Memphis Tennessee – 02:14
06. Johnny Horton – The Battle Of New Orleans – 02:32
07. Buddy Holly – It Doesn’t Matter Anymore – 02:04
08. Johnny Preston – Running Bear – 02:39
09. Johnny & The Hurricanes – Red River Rock – 02:11
10. Marty Robbins – El Paso – 04:40
11. The Rock-A-Teens – Woo Hoo – 02:06
12. Little Anthony & The Imperials – Shimmy, Shimmy, Ko-Ko-Bop – 02:08
13. Sandy Nelson – Teen Beat – 03:01
14. Paul Anka – Put Your Head On My Shoulder – 02:39
15. Dave ‘Baby’ Cortez – The Happy Organs – 02:04
16. Buddy Holly – Peggy Sue Got Married – 02:04
17. Connie Francis – Lipstick On Your Collar – 02:18
18. Ricky Nelson – Never Be Anyone Else But You – 02:15
19. Elvis Presley – I Need Your Love Tonight – 02:06
20. Charlie Ryan – Hot Rod Lincoln – 02:27
21. Cliff Richard – Livin’ Doll – 02:38
22. Marv Johnson – You Got What It Takes – 02:44
23. Fats Domino – I Want To Walk You Home – 02:23
24. Sam Cooke – Only Sixteen – 01:55
25. The Virtues – Guitar Boogie Shuffle – 02:32

The Cruisin’ Story – 1960
Disc 1
01. Joe Jones – You Talk Too Much – 02:32
02. Little Anthony & The Imperials – Tears On My Pillow – 02:12
03. Brook Benton & Dinah Washington – Baby You Got What It Takes – 02:55
04. Jack Scott – What In The World’s Come Over You – 02:43
05. Hank Ballard & The Midnighters – Finger Poppin’ Time – 01:50
06. The Tempos – See You In September – 01:59
07. The Hollywood Argyles – Alley Oop – 02:43
08. Maurice Williams & The Zodiacs – Stay – 01:36
09. Johnny Preston – Running Bear – 02:38
10. Toni Fisher – The Big Hurt – 02:12
11. Duane Eddy – Because Theyre Young – 02:01
12. Buster Brown – Fannie Mae – 02:57
13. The Shirelles – Will You Love Me Tomorrow – 02:42
14. Ben E King – Spanish Harlem – 02:54
15. Gary US Bonds – New Orleans – 02:49
16. Elvis Presley – Stuck On You – 02:15
17. Roy Orbison – Blue Angel – 02:52
18. Ray Charles – Georgia On My Mind – 03:39
19. Johnny Bond – Hot Rod Lincoln – 02:46
20. Jimmy Jones – Good Timin’ – 02:05
21. The Miracles – Shop Around – 02:49
22. Chuck Berry – Bye Bye Johnny – 02:06
23. Sam Cooke – Chain Gang – 02:36
24. Johnny Burnette – Dreamin’ – 02:19
25. Paul Anka – Puppy Love – 02:43
Disc 2
01. Elvis Presley – Its Now Or Never – 03:16
02. The Ventures – Walk Don’t Run – 02:04
03. Bobby Rydell – Volare – 02:27
04. Eddie Cochran – Three Steps To Heaven – 02:22
05. Chubby Checker – The Twist – 02:37
06. Johnny Tillotson – Poetry In Motion – 02:34
07. Gene Vincent – Pistol Packin’ Mama – 02:09
08. Johnny Kidd & The Pirates – Shakin’ All Over – 02:21
09. Sam Cooke – Wonderful World – 02:07
10. Charlie Rich – Lonely Weekend – 02:09
11. Cliff Richard – Nine Times Out Of Ten – 02:07
12. The Everly Brothers – Cathy’s Clown – 02:25
13. Chuck Berry – Let It Rock – 01:48
14. Clarence ‘Frogman’ Henry – (I Don’t Know Why) But I Do – 02:21
15. Elvis Presley – Such A Night – 03:01
16. Fats Domino – Walkin To New Orleans – 02:00
17. The Crickets – I Fought The Law – 02:13
18. Brook Benton & Dinah Washington – A Rockin’ Good Way – 02:27
19. The Fendermen – Mule Skinner Blues – 02:25
20. Jackie Wilson – Doggin’ Around – 02:54
21. Brenda Lee – I Want To Be Wanted – 03:05
22. Kathy & The Innocents – A Thousand Stars – 03:13
23. Billy Fury – That’s Love – 01:49
24. The Drifters – I Count The Tears – 02:09
25. Buddy Holly – True Love Ways – 02:50

EAC Logs
EAC Log The Cruisin' Story - 1956
EAC Log Disc 1

Exact Audio Copy V1.0 beta 4 from 7. December 2014

Отчёт EAC об извлечении, выполненном 2. апреля 2015, 10:52

Various Artists / The Cruisin' Story (1956-1960) - 1956 (Disc 1)

Дисковод: HL-DT-STDVDRAM GUA0N Adapter: 1 ID: 0

Режим чтения : Достоверность
Использование точного потока : Да
Отключение кэша аудио : Да
Использование указателей C2 : Нет

Коррекция смещения при чтении : 6
Способность читать области Lead-in и Lead-out : Нет
Заполнение пропущенных сэмплов тишиной : Да
Удаление блоков с тишиной в начале и конце : Нет
При вычислениях CRC использовались нулевые сэмплы : Да
Интерфейс : Встроенный Win32-интерфейс для Win NT/2000

Выходной формат : Пользовательский кодировщик
Выбранный битрейт : 768 kBit/s
Качество : Высокий
Добавление ID3-тега : Нет
Утилита сжатия : C:\Program Files (x86)\Exact Audio Copy\FLAC\FLAC.EXE
Дополнительные параметры : -6 -V -T "ARTIST=%artist%" -T "TITLE=%title%" -T "ALBUM=%albumtitle%" -T "DATE=%year%" -T "TRACKNUMBER=%tracknr%" -T "GENRE=%genre%" -T "COMMENT=%comment%" -T "BAND=%albuminterpret%" -T "ALBUMARTIST=%albuminterpret%" -T "COMPOSER=%composer%" %haslyrics%--tag-from-file=LYRICS="%lyricsfile%"%haslyrics% -T "DISCNUMBER=%cdnumber%" -T "TOTALDISCS=%totalcds%" -T "TOTALTRACKS=%numtracks%" %hascover%--picture="%coverfile%"%hascover% %source% -o %dest%

TOC извлечённого CD

Трек | Старт | Длительность | Начальный сектор | Конечный сектор
---------------------------------------------------------------------
1 | 0:00.00 | 2:25.29 | 0 | 10903
2 | 2:25.29 | 2:18.40 | 10904 | 21293
3 | 4:43.69 | 3:12.69 | 21294 | 35762
4 | 7:56.63 | 2:22.58 | 35763 | 46470
5 | 10:19.46 | 2:32.05 | 46471 | 57875
6 | 12:51.51 | 2:26.39 | 57876 | 68864
7 | 15:18.15 | 2:19.70 | 68865 | 79359
8 | 17:38.10 | 2:16.27 | 79360 | 89586
9 | 19:54.37 | 2:13.40 | 89587 | 99601
10 | 22:08.02 | 2:20.23 | 99602 | 110124
11 | 24:28.25 | 2:05.43 | 110125 | 119542
12 | 26:33.68 | 2:07.42 | 119543 | 129109
13 | 28:41.35 | 2:26.05 | 129110 | 140064
14 | 31:07.40 | 2:16.29 | 140065 | 150293
15 | 33:23.69 | 3:13.64 | 150294 | 164832
16 | 36:37.58 | 2:02.62 | 164833 | 174044
17 | 38:40.45 | 2:49.01 | 174045 | 186720
18 | 41:29.46 | 2:55.66 | 186721 | 199911
19 | 44:25.37 | 2:35.61 | 199912 | 211597
20 | 47:01.23 | 2:54.49 | 211598 | 224696
21 | 49:55.72 | 2:45.25 | 224697 | 237096
22 | 52:41.22 | 2:36.47 | 237097 | 248843
23 | 55:17.69 | 2:13.61 | 248844 | 258879
24 | 57:31.55 | 2:13.31 | 258880 | 268885
25 | 59:45.11 | 2:47.12 | 268886 | 281422

Характеристики диапазона извлечения и сообщения об ошибках

Выбранный диапазон

Имя файла E:\EAC\The Cruisin' Story (1955-1960)\CD 3 - 1956 Disc 1\Various Artists - The Cruisin' Story (1956-1960) - 1956 (Disc 1).wav

Пиковый уровень 98.8 %
Скорость извлечения 4.7 X
Качество диапазона 100.0 %
CRC теста 88982A1F
CRC копии 88982A1F
Копирование... OK

Ошибок не произошло

AccurateRip: сводка

Трек 1 : извлечено точно (доверие 1) [9C799CC8] (AR v2)
Трек 2 : извлечено точно (доверие 1) [889DC353] (AR v2)
Трек 3 : извлечено точно (доверие 1) [8415AD33] (AR v2)
Трек 4 : извлечено точно (доверие 1) [F096754D] (AR v2)
Трек 5 : извлечено точно (доверие 1) [2E767E8B] (AR v2)
Трек 6 : извлечено точно (доверие 1) [853C183F] (AR v2)
Трек 7 : извлечено точно (доверие 1) [A1313193] (AR v2)
Трек 8 : извлечено точно (доверие 1) [43A6E9D8] (AR v2)
Трек 9 : извлечено точно (доверие 1) [414A28E3] (AR v2)
Трек 10 : извлечено точно (доверие 1) [83FF7253] (AR v2)
Трек 11 : извлечено точно (доверие 1) [3662089C] (AR v2)
Трек 12 : извлечено точно (доверие 1) [493110AA] (AR v2)
Трек 13 : извлечено точно (доверие 1) [830ABD32] (AR v2)
Трек 14 : извлечено точно (доверие 1) [3F3FE871] (AR v2)
Трек 15 : извлечено точно (доверие 1) [03E0CEFE] (AR v2)
Трек 16 : извлечено точно (доверие 1) [C024519C] (AR v2)
Трек 17 : извлечено точно (доверие 1) [A8710439] (AR v2)
Трек 18 : извлечено точно (доверие 1) [6C7B54C5] (AR v2)
Трек 19 : извлечено точно (доверие 1) [A0045C3C] (AR v2)
Трек 20 : извлечено точно (доверие 1) [23D5AA28] (AR v2)
Трек 21 : извлечено точно (доверие 1) [D3F6FF5F] (AR v2)
Трек 22 : извлечено точно (доверие 1) [2DB41E82] (AR v2)
Трек 23 : извлечено точно (доверие 1) [E43D7B16] (AR v2)
Трек 24 : извлечено точно (доверие 1) [9127954D] (AR v2)
Трек 25 : извлечено точно (доверие 1) [9AD9959A] (AR v2)

Все треки извлечены точно

Конец отчёта

==== Контрольная сумма отчёта C6AB4FD423030AE36F44EDB7E1E50BC83DE664290641984B78553560DD98AD05 ====
[__/su_spoiler]

EAC Log Disc 2

Exact Audio Copy V1.0 beta 4 from 7. December 2014

Отчёт EAC об извлечении, выполненном 2. апреля 2015, 11:37

Various Artists / The Cruisin' Story (1956-1960) - 1956 (Disc 2)

Дисковод: HL-DT-STDVDRAM GUA0N Adapter: 1 ID: 0

Режим чтения : Достоверность
Использование точного потока : Да
Отключение кэша аудио : Да
Использование указателей C2 : Нет

Коррекция смещения при чтении : 6
Способность читать области Lead-in и Lead-out : Нет
Заполнение пропущенных сэмплов тишиной : Да
Удаление блоков с тишиной в начале и конце : Нет
При вычислениях CRC использовались нулевые сэмплы : Да
Интерфейс : Встроенный Win32-интерфейс для Win NT/2000

Выходной формат : Пользовательский кодировщик
Выбранный битрейт : 768 kBit/s
Качество : Высокий
Добавление ID3-тега : Нет
Утилита сжатия : C:\Program Files (x86)\Exact Audio Copy\FLAC\FLAC.EXE
Дополнительные параметры : -6 -V -T "ARTIST=%artist%" -T "TITLE=%title%" -T "ALBUM=%albumtitle%" -T "DATE=%year%" -T "TRACKNUMBER=%tracknr%" -T "GENRE=%genre%" -T "COMMENT=%comment%" -T "BAND=%albuminterpret%" -T "ALBUMARTIST=%albuminterpret%" -T "COMPOSER=%composer%" %haslyrics%--tag-from-file=LYRICS="%lyricsfile%"%haslyrics% -T "DISCNUMBER=%cdnumber%" -T "TOTALDISCS=%totalcds%" -T "TOTALTRACKS=%numtracks%" %hascover%--picture="%coverfile%"%hascover% %source% -o %dest%

TOC извлечённого CD

Трек | Старт | Длительность | Начальный сектор | Конечный сектор
---------------------------------------------------------------------
1 | 0:00.00 | 1:56.17 | 0 | 8716
2 | 1:56.17 | 2:24.44 | 8717 | 19560
3 | 4:20.61 | 2:49.22 | 19561 | 32257
4 | 7:10.08 | 3:07.33 | 32258 | 46315
5 | 10:17.41 | 2:19.09 | 46316 | 56749
6 | 12:36.50 | 2:26.33 | 56750 | 67732
7 | 15:03.08 | 2:30.54 | 67733 | 79036
8 | 17:33.62 | 3:14.33 | 79037 | 93619
9 | 20:48.20 | 2:58.72 | 93620 | 107041
10 | 23:47.17 | 1:59.69 | 107042 | 116035
11 | 25:47.11 | 2:36.57 | 116036 | 127792
12 | 28:23.68 | 1:59.07 | 127793 | 136724
13 | 30:23.00 | 2:32.35 | 136725 | 148159
14 | 32:55.35 | 2:40.18 | 148160 | 160177
15 | 35:35.53 | 2:16.44 | 160178 | 170421
16 | 37:52.22 | 2:17.52 | 170422 | 180748
17 | 40:09.74 | 3:04.29 | 180749 | 194577
18 | 43:14.28 | 2:35.69 | 194578 | 206271
19 | 45:50.22 | 2:01.72 | 206272 | 215418
20 | 47:52.19 | 2:24.07 | 215419 | 226225
21 | 50:16.26 | 2:43.63 | 226226 | 238513
22 | 53:00.14 | 2:40.39 | 238514 | 250552
23 | 55:40.53 | 2:42.27 | 250553 | 262729
24 | 58:23.05 | 2:13.48 | 262730 | 272752
25 | 60:36.53 | 3:15.21 | 272753 | 287398

Характеристики диапазона извлечения и сообщения об ошибках

Выбранный диапазон

Имя файла E:\EAC\The Cruisin' Story (1955-1960)\CD 4 - 1956 Disc 2\Various Artists - The Cruisin' Story (1956-1960) - 1956 (Disc 2).wav

Пиковый уровень 98.7 %
Скорость извлечения 4.7 X
Качество диапазона 100.0 %
CRC теста 42F4CCCB
CRC копии 42F4CCCB
Копирование... OK

Ошибок не произошло

AccurateRip: сводка

Трек 1 : извлечено точно (доверие 1) [DBCC1610] (AR v2)
Трек 2 : извлечено точно (доверие 1) [959D1665] (AR v2)
Трек 3 : извлечено точно (доверие 1) [C4EA2CAA] (AR v2)
Трек 4 : извлечено точно (доверие 1) [6E1B526C] (AR v2)
Трек 5 : извлечено точно (доверие 1) [83EAFD31] (AR v2)
Трек 6 : извлечено точно (доверие 1) [DBD832E1] (AR v2)
Трек 7 : извлечено точно (доверие 1) [E92F8DAD] (AR v2)
Трек 8 : извлечено точно (доверие 1) [05B2B1F0] (AR v2)
Трек 9 : извлечено точно (доверие 1) [34D0AAC2] (AR v2)
Трек 10 : извлечено точно (доверие 1) [21230DF7] (AR v2)
Трек 11 : извлечено точно (доверие 1) [1A133576] (AR v2)
Трек 12 : извлечено точно (доверие 1) [B68F351C] (AR v2)
Трек 13 : извлечено точно (доверие 1) [45FE0EEF] (AR v2)
Трек 14 : извлечено точно (доверие 1) [5590ACCB] (AR v2)
Трек 15 : извлечено точно (доверие 1) [6C28DA9B] (AR v2)
Трек 16 : извлечено точно (доверие 1) [B48448B0] (AR v2)
Трек 17 : извлечено точно (доверие 1) [9F68AAA0] (AR v2)
Трек 18 : извлечено точно (доверие 1) [B34A026E] (AR v2)
Трек 19 : извлечено точно (доверие 1) [A27E7038] (AR v2)
Трек 20 : извлечено точно (доверие 1) [4A227DF0] (AR v2)
Трек 21 : извлечено точно (доверие 1) [7416E7E1] (AR v2)
Трек 22 : извлечено точно (доверие 1) [67297E0F] (AR v2)
Трек 23 : извлечено точно (доверие 1) [0165573A] (AR v2)
Трек 24 : извлечено точно (доверие 1) [A971FA1D] (AR v2)
Трек 25 : извлечено точно (доверие 1) [06586E90] (AR v2)

Все треки извлечены точно

Конец отчёта

==== Контрольная сумма отчёта DA12E392ED4DC7DCF596906ABC42145E56483568BCDA00EC215978A2F2B50A11 ====
[__/su_spoiler]
[_/su_spoiler]

EAC Log The Cruisin' Story - 1957
EAC Log Disc 1

Exact Audio Copy V1.0 beta 4 from 7. December 2014

Отчёт EAC об извлечении, выполненном 2. апреля 2015, 12:23

Various Artists / The Cruisin' Story - 1957 (Disc 1)

Дисковод: HL-DT-STDVDRAM GUA0N Adapter: 1 ID: 0

Режим чтения : Достоверность
Использование точного потока : Да
Отключение кэша аудио : Да
Использование указателей C2 : Нет

Коррекция смещения при чтении : 6
Способность читать области Lead-in и Lead-out : Нет
Заполнение пропущенных сэмплов тишиной : Да
Удаление блоков с тишиной в начале и конце : Нет
При вычислениях CRC использовались нулевые сэмплы : Да
Интерфейс : Встроенный Win32-интерфейс для Win NT/2000

Выходной формат : Пользовательский кодировщик
Выбранный битрейт : 768 kBit/s
Качество : Высокий
Добавление ID3-тега : Нет
Утилита сжатия : C:\Program Files (x86)\Exact Audio Copy\FLAC\FLAC.EXE
Дополнительные параметры : -6 -V -T "ARTIST=%artist%" -T "TITLE=%title%" -T "ALBUM=%albumtitle%" -T "DATE=%year%" -T "TRACKNUMBER=%tracknr%" -T "GENRE=%genre%" -T "COMMENT=%comment%" -T "BAND=%albuminterpret%" -T "ALBUMARTIST=%albuminterpret%" -T "COMPOSER=%composer%" %haslyrics%--tag-from-file=LYRICS="%lyricsfile%"%haslyrics% -T "DISCNUMBER=%cdnumber%" -T "TOTALDISCS=%totalcds%" -T "TOTALTRACKS=%numtracks%" %hascover%--picture="%coverfile%"%hascover% %source% -o %dest%

TOC извлечённого CD

Трек | Старт | Длительность | Начальный сектор | Конечный сектор
---------------------------------------------------------------------
1 | 0:00.00 | 2:18.63 | 0 | 10412
2 | 2:18.63 | 2:19.51 | 10413 | 20888
3 | 4:38.39 | 2:42.42 | 20889 | 33080
4 | 7:21.06 | 2:26.15 | 33081 | 44045
5 | 9:47.21 | 2:12.67 | 44046 | 54012
6 | 12:00.13 | 2:21.55 | 54013 | 64642
7 | 14:21.68 | 2:29.52 | 64643 | 75869
8 | 16:51.45 | 2:05.49 | 75870 | 85293
9 | 18:57.19 | 2:02.14 | 85294 | 94457
10 | 20:59.33 | 2:07.29 | 94458 | 104011
11 | 23:06.62 | 2:33.71 | 104012 | 115557
12 | 25:40.58 | 2:00.63 | 115558 | 124620
13 | 27:41.46 | 2:09.61 | 124621 | 134356
14 | 29:51.32 | 2:09.51 | 134357 | 144082
15 | 32:01.08 | 2:16.38 | 144083 | 154320
16 | 34:17.46 | 2:36.19 | 154321 | 166039
17 | 36:53.65 | 2:25.16 | 166040 | 176930
18 | 39:19.06 | 2:26.49 | 176931 | 187929
19 | 41:45.55 | 2:25.31 | 187930 | 198835
20 | 44:11.11 | 2:17.00 | 198836 | 209110
21 | 46:28.11 | 2:20.05 | 209111 | 219615
22 | 48:48.16 | 1:47.44 | 219616 | 227684
23 | 50:35.60 | 2:42.34 | 227685 | 239868
24 | 53:18.19 | 1:53.26 | 239869 | 248369
25 | 55:11.45 | 2:43.23 | 248370 | 260617

Характеристики диапазона извлечения и сообщения об ошибках

Выбранный диапазон

Имя файла E:\EAC\The Cruisin' Story (1955-1960)\CD 5 - 1957 Disc 1\Various Artists - The Cruisin' Story - 1957 (Disc 1).wav

Пиковый уровень 98.8 %
Скорость извлечения 4.6 X
Качество диапазона 100.0 %
CRC теста 6A7BB025
CRC копии 6A7BB025
Копирование... OK

Ошибок не произошло

AccurateRip: сводка

Трек 1 : извлечено точно (доверие 1) [1CB3BE44] (AR v2)
Трек 2 : извлечено точно (доверие 1) [EA7B5FB7] (AR v2)
Трек 3 : извлечено точно (доверие 1) [7CA01A88] (AR v2)
Трек 4 : извлечено точно (доверие 1) [9AFF73C8] (AR v2)
Трек 5 : извлечено точно (доверие 1) [19E16787] (AR v2)
Трек 6 : извлечено точно (доверие 1) [8EE88A4D] (AR v2)
Трек 7 : извлечено точно (доверие 1) [86E7CB61] (AR v2)
Трек 8 : извлечено точно (доверие 1) [FA16CB28] (AR v2)
Трек 9 : извлечено точно (доверие 1) [18848AD3] (AR v2)
Трек 10 : извлечено точно (доверие 1) [3B57DB09] (AR v2)
Трек 11 : извлечено точно (доверие 1) [3E0C6805] (AR v2)
Трек 12 : извлечено точно (доверие 1) [91EAF995] (AR v2)
Трек 13 : извлечено точно (доверие 1) [A433DB43] (AR v2)
Трек 14 : извлечено точно (доверие 1) [5DFA5C8E] (AR v2)
Трек 15 : извлечено точно (доверие 1) [8728DF53] (AR v2)
Трек 16 : извлечено точно (доверие 1) [27632AC8] (AR v2)
Трек 17 : извлечено точно (доверие 1) [8CDEB5AD] (AR v2)
Трек 18 : извлечено точно (доверие 1) [8D9FC8A7] (AR v2)
Трек 19 : извлечено точно (доверие 1) [D90ED2F5] (AR v2)
Трек 20 : извлечено точно (доверие 1) [BA761963] (AR v2)
Трек 21 : извлечено точно (доверие 1) [85A34092] (AR v2)
Трек 22 : извлечено точно (доверие 1) [BDD113F3] (AR v2)
Трек 23 : извлечено точно (доверие 1) [5AB72363] (AR v2)
Трек 24 : извлечено точно (доверие 1) [0A0BC953] (AR v2)
Трек 25 : извлечено точно (доверие 1) [C8610F7B] (AR v2)

Все треки извлечены точно

Конец отчёта

==== Контрольная сумма отчёта 7AB144D6032A867A1AB31CEA886B6593399BA3ED48763592501D2C38C22AC020 ====
[__/su_spoiler]

EAC Log Disc 2

Exact Audio Copy V1.0 beta 4 from 7. December 2014

Отчёт EAC об извлечении, выполненном 2. апреля 2015, 14:01

Various Artists / The Cruisin' Story 1957 (CD2)

Дисковод: HL-DT-STDVDRAM GUA0N Adapter: 1 ID: 0

Режим чтения : Достоверность
Использование точного потока : Да
Отключение кэша аудио : Да
Использование указателей C2 : Нет

Коррекция смещения при чтении : 6
Способность читать области Lead-in и Lead-out : Нет
Заполнение пропущенных сэмплов тишиной : Да
Удаление блоков с тишиной в начале и конце : Нет
При вычислениях CRC использовались нулевые сэмплы : Да
Интерфейс : Встроенный Win32-интерфейс для Win NT/2000

Выходной формат : Пользовательский кодировщик
Выбранный битрейт : 768 kBit/s
Качество : Высокий
Добавление ID3-тега : Нет
Утилита сжатия : C:\Program Files (x86)\Exact Audio Copy\FLAC\FLAC.EXE
Дополнительные параметры : -6 -V -T "ARTIST=%artist%" -T "TITLE=%title%" -T "ALBUM=%albumtitle%" -T "DATE=%year%" -T "TRACKNUMBER=%tracknr%" -T "GENRE=%genre%" -T "COMMENT=%comment%" -T "BAND=%albuminterpret%" -T "ALBUMARTIST=%albuminterpret%" -T "COMPOSER=%composer%" %haslyrics%--tag-from-file=LYRICS="%lyricsfile%"%haslyrics% -T "DISCNUMBER=%cdnumber%" -T "TOTALDISCS=%totalcds%" -T "TOTALTRACKS=%numtracks%" %hascover%--picture="%coverfile%"%hascover% %source% -o %dest%

TOC извлечённого CD

Трек | Старт | Длительность | Начальный сектор | Конечный сектор
---------------------------------------------------------------------
1 | 0:00.00 | 2:09.74 | 0 | 9748
2 | 2:09.74 | 2:17.11 | 9749 | 20034
3 | 4:27.10 | 3:07.73 | 20035 | 34132
4 | 7:35.08 | 2:45.10 | 34133 | 46517
5 | 10:20.18 | 2:16.44 | 46518 | 56761
6 | 12:36.62 | 2:16.63 | 56762 | 67024
7 | 14:53.50 | 2:09.34 | 67025 | 76733
8 | 17:03.09 | 2:17.05 | 76734 | 87013
9 | 19:20.14 | 2:28.60 | 87014 | 98173
10 | 21:48.74 | 2:36.03 | 98174 | 109876
11 | 24:25.02 | 2:19.60 | 109877 | 120361
12 | 26:44.62 | 2:44.15 | 120362 | 132676
13 | 29:29.02 | 2:12.22 | 132677 | 142598
14 | 31:41.24 | 2:44.12 | 142599 | 154910
15 | 34:25.36 | 2:52.65 | 154911 | 167875
16 | 37:18.26 | 2:03.61 | 167876 | 177161
17 | 39:22.12 | 2:25.74 | 177162 | 188110
18 | 41:48.11 | 2:31.42 | 188111 | 199477
19 | 44:19.53 | 2:43.12 | 199478 | 211714
20 | 47:02.65 | 2:04.33 | 211715 | 221047
21 | 49:07.23 | 2:22.04 | 221048 | 231701
22 | 51:29.27 | 2:32.40 | 231702 | 243141
23 | 54:01.67 | 2:24.09 | 243142 | 253950
24 | 56:26.01 | 2:09.67 | 253951 | 263692
25 | 58:35.68 | 2:52.57 | 263693 | 276649

Характеристики диапазона извлечения и сообщения об ошибках

Выбранный диапазон

Имя файла E:\EAC\The Cruisin' Story (1955-1960)\CD 6 - 1957 Disc 2\Various Artists - The Cruisin' Story 1957 (CD2).wav

Пиковый уровень 98.8 %
Скорость извлечения 4.6 X
Качество диапазона 100.0 %
CRC теста 43D19E8C
CRC копии 43D19E8C
Копирование... OK

Ошибок не произошло

AccurateRip: сводка

Трек 1 : извлечено точно (доверие 1) [F92305B6] (AR v2)
Трек 2 : извлечено точно (доверие 1) [96CF44C2] (AR v2)
Трек 3 : извлечено точно (доверие 1) [B97AD002] (AR v2)
Трек 4 : извлечено точно (доверие 1) [848EDF1C] (AR v2)
Трек 5 : извлечено точно (доверие 1) [A6128B4E] (AR v2)
Трек 6 : извлечено точно (доверие 1) [EA1B5078] (AR v2)
Трек 7 : извлечено точно (доверие 1) [36D591B1] (AR v2)
Трек 8 : извлечено точно (доверие 1) [56FE4F0F] (AR v2)
Трек 9 : извлечено точно (доверие 1) [C366040C] (AR v2)
Трек 10 : извлечено точно (доверие 1) [C8272143] (AR v2)
Трек 11 : извлечено точно (доверие 1) [3BF7B54A] (AR v2)
Трек 12 : извлечено точно (доверие 1) [5C634E85] (AR v2)
Трек 13 : извлечено точно (доверие 1) [0255E9E9] (AR v2)
Трек 14 : извлечено точно (доверие 1) [2BC21267] (AR v2)
Трек 15 : извлечено точно (доверие 1) [BBA82875] (AR v2)
Трек 16 : извлечено точно (доверие 1) [DAD83E9C] (AR v2)
Трек 17 : извлечено точно (доверие 1) [A6ED2605] (AR v2)
Трек 18 : извлечено точно (доверие 1) [C01B1264] (AR v2)
Трек 19 : извлечено точно (доверие 1) [38B485FE] (AR v2)
Трек 20 : извлечено точно (доверие 1) [3C2CCF67] (AR v2)
Трек 21 : извлечено точно (доверие 1) [12F530CF] (AR v2)
Трек 22 : извлечено точно (доверие 1) [B192817A] (AR v2)
Трек 23 : извлечено точно (доверие 1) [01885685] (AR v2)
Трек 24 : извлечено точно (доверие 1) [9CF129DA] (AR v2)
Трек 25 : извлечено точно (доверие 1) [1DE7AB9A] (AR v2)

Все треки извлечены точно

Конец отчёта

==== Контрольная сумма отчёта 820EB61F53DEC20EB21634B63F9809FEF1E7964C3D8EA57E7A1D43BE0B24CEE1 ====
[__/su_spoiler]
[_/su_spoiler]

EAC Log The Cruisin' Story - 1958
EAC Log Disc 1

Exact Audio Copy V1.0 beta 4 from 7. December 2014

Отчёт EAC об извлечении, выполненном 2. апреля 2015, 14:43

Various Artists / The Cruisin' Story 1958 (CD1)

Дисковод: HL-DT-STDVDRAM GUA0N Adapter: 1 ID: 0

Режим чтения : Достоверность
Использование точного потока : Да
Отключение кэша аудио : Да
Использование указателей C2 : Нет

Коррекция смещения при чтении : 6
Способность читать области Lead-in и Lead-out : Нет
Заполнение пропущенных сэмплов тишиной : Да
Удаление блоков с тишиной в начале и конце : Нет
При вычислениях CRC использовались нулевые сэмплы : Да
Интерфейс : Встроенный Win32-интерфейс для Win NT/2000

Выходной формат : Пользовательский кодировщик
Выбранный битрейт : 768 kBit/s
Качество : Высокий
Добавление ID3-тега : Нет
Утилита сжатия : C:\Program Files (x86)\Exact Audio Copy\FLAC\FLAC.EXE
Дополнительные параметры : -6 -V -T "ARTIST=%artist%" -T "TITLE=%title%" -T "ALBUM=%albumtitle%" -T "DATE=%year%" -T "TRACKNUMBER=%tracknr%" -T "GENRE=%genre%" -T "COMMENT=%comment%" -T "BAND=%albuminterpret%" -T "ALBUMARTIST=%albuminterpret%" -T "COMPOSER=%composer%" %haslyrics%--tag-from-file=LYRICS="%lyricsfile%"%haslyrics% -T "DISCNUMBER=%cdnumber%" -T "TOTALDISCS=%totalcds%" -T "TOTALTRACKS=%numtracks%" %hascover%--picture="%coverfile%"%hascover% %source% -o %dest%

TOC извлечённого CD

Трек | Старт | Длительность | Начальный сектор | Конечный сектор
---------------------------------------------------------------------
1 | 0:00.00 | 2:33.18 | 0 | 11492
2 | 2:33.18 | 2:12.59 | 11493 | 21451
3 | 4:46.02 | 2:21.33 | 21452 | 32059
4 | 7:07.35 | 2:32.06 | 32060 | 43465
5 | 9:39.41 | 2:21.35 | 43466 | 54075
6 | 12:01.01 | 1:50.25 | 54076 | 62350
7 | 13:51.26 | 2:20.31 | 62351 | 72881
8 | 16:11.57 | 1:57.72 | 72882 | 81728
9 | 18:09.54 | 2:40.74 | 81729 | 93802
10 | 20:50.53 | 2:32.50 | 93803 | 105252
11 | 23:23.28 | 2:15.16 | 105253 | 115393
12 | 25:38.44 | 2:26.07 | 115394 | 126350
13 | 28:04.51 | 2:02.05 | 126351 | 135505
14 | 30:06.56 | 2:11.27 | 135506 | 145357
15 | 32:18.08 | 2:48.10 | 145358 | 157967
16 | 35:06.18 | 2:11.18 | 157968 | 167810
17 | 37:17.36 | 2:38.41 | 167811 | 179701
18 | 39:56.02 | 2:33.03 | 179702 | 191179
19 | 42:29.05 | 2:11.10 | 191180 | 201014
20 | 44:40.15 | 2:27.65 | 201015 | 212104
21 | 47:08.05 | 2:09.72 | 212105 | 221851
22 | 49:18.02 | 2:31.55 | 221852 | 233231
23 | 51:49.57 | 2:38.14 | 233232 | 245095
24 | 54:27.71 | 2:01.07 | 245096 | 254177
25 | 56:29.03 | 2:23.13 | 254178 | 264915

Характеристики диапазона извлечения и сообщения об ошибках

Выбранный диапазон

Имя файла E:\EAC\The Cruisin' Story (1955-1960)\CD 7 - 1958 Disc 1\Various Artists - The Cruisin' Story 1958 (CD1).wav

Пиковый уровень 98.8 %
Скорость извлечения 4.6 X
Качество диапазона 100.0 %
CRC теста CB35801F
CRC копии CB35801F
Копирование... OK

Ошибок не произошло

AccurateRip: сводка

Трек 1 : извлечено точно (доверие 1) [756D2FAB] (AR v2)
Трек 2 : извлечено точно (доверие 1) [46CF2D49] (AR v2)
Трек 3 : извлечено точно (доверие 1) [B2025687] (AR v2)
Трек 4 : извлечено точно (доверие 1) [2FCB8C48] (AR v2)
Трек 5 : извлечено точно (доверие 1) [287929C0] (AR v2)
Трек 6 : извлечено точно (доверие 1) [A623E6D5] (AR v2)
Трек 7 : извлечено точно (доверие 1) [7A4FE2E5] (AR v2)
Трек 8 : извлечено точно (доверие 1) [A695372D] (AR v2)
Трек 9 : извлечено точно (доверие 1) [22C59F64] (AR v2)
Трек 10 : извлечено точно (доверие 1) [B44A5D73] (AR v2)
Трек 11 : извлечено точно (доверие 1) [91D32AE2] (AR v2)
Трек 12 : извлечено точно (доверие 1) [F7CB0B3D] (AR v2)
Трек 13 : извлечено точно (доверие 1) [21E24608] (AR v2)
Трек 14 : извлечено точно (доверие 1) [E9F57905] (AR v2)
Трек 15 : извлечено точно (доверие 1) [C99C8A45] (AR v2)
Трек 16 : извлечено точно (доверие 1) [02B19F9A] (AR v2)
Трек 17 : извлечено точно (доверие 1) [3CD9ED67] (AR v2)
Трек 18 : извлечено точно (доверие 1) [C8660139] (AR v2)
Трек 19 : извлечено точно (доверие 1) [422574F3] (AR v2)
Трек 20 : извлечено точно (доверие 1) [DD0B3487] (AR v2)
Трек 21 : извлечено точно (доверие 1) [CBDD94E1] (AR v2)
Трек 22 : извлечено точно (доверие 1) [BF9CEDC7] (AR v2)
Трек 23 : извлечено точно (доверие 1) [A91950AA] (AR v2)
Трек 24 : извлечено точно (доверие 1) [87DB0BC9] (AR v2)
Трек 25 : извлечено точно (доверие 1) [FF02B577] (AR v2)

Все треки извлечены точно

Конец отчёта

==== Контрольная сумма отчёта 65B2E8C6C9A824AD75583B2DD745D46E9C2833F01BCF18B6A1397694987AD8DA ====
[__/su_spoiler]

EAC Log Disc 2

Exact Audio Copy V1.0 beta 4 from 7. December 2014

Отчёт EAC об извлечении, выполненном 2. апреля 2015, 15:29

Various Artists / The Cruisin' Story 1958 (CD2)

Дисковод: HL-DT-STDVDRAM GUA0N Adapter: 1 ID: 0

Режим чтения : Достоверность
Использование точного потока : Да
Отключение кэша аудио : Да
Использование указателей C2 : Нет

Коррекция смещения при чтении : 6
Способность читать области Lead-in и Lead-out : Нет
Заполнение пропущенных сэмплов тишиной : Да
Удаление блоков с тишиной в начале и конце : Нет
При вычислениях CRC использовались нулевые сэмплы : Да
Интерфейс : Встроенный Win32-интерфейс для Win NT/2000

Выходной формат : Пользовательский кодировщик
Выбранный битрейт : 768 kBit/s
Качество : Высокий
Добавление ID3-тега : Нет
Утилита сжатия : C:\Program Files (x86)\Exact Audio Copy\FLAC\FLAC.EXE
Дополнительные параметры : -6 -V -T "ARTIST=%artist%" -T "TITLE=%title%" -T "ALBUM=%albumtitle%" -T "DATE=%year%" -T "TRACKNUMBER=%tracknr%" -T "GENRE=%genre%" -T "COMMENT=%comment%" -T "BAND=%albuminterpret%" -T "ALBUMARTIST=%albuminterpret%" -T "COMPOSER=%composer%" %haslyrics%--tag-from-file=LYRICS="%lyricsfile%"%haslyrics% -T "DISCNUMBER=%cdnumber%" -T "TOTALDISCS=%totalcds%" -T "TOTALTRACKS=%numtracks%" %hascover%--picture="%coverfile%"%hascover% %source% -o %dest%

TOC извлечённого CD

Трек | Старт | Длительность | Начальный сектор | Конечный сектор
---------------------------------------------------------------------
1 | 0:00.00 | 2:26.18 | 0 | 10967
2 | 2:26.18 | 2:37.54 | 10968 | 22796
3 | 5:03.72 | 2:36.72 | 22797 | 34568
4 | 7:40.69 | 2:47.73 | 34569 | 47166
5 | 10:28.67 | 4:06.36 | 47167 | 65652
6 | 14:35.28 | 2:24.16 | 65653 | 76468
7 | 16:59.44 | 2:21.63 | 76469 | 87106
8 | 19:21.32 | 2:40.07 | 87107 | 99113
9 | 22:01.39 | 1:56.44 | 99114 | 107857
10 | 23:58.08 | 3:18.53 | 107858 | 122760
11 | 27:16.61 | 2:04.23 | 122761 | 132083
12 | 29:21.09 | 2:27.52 | 132084 | 143160
13 | 31:48.61 | 2:39.24 | 143161 | 155109
14 | 34:28.10 | 2:08.32 | 155110 | 164741
15 | 36:36.42 | 2:33.11 | 164742 | 176227
16 | 39:09.53 | 2:16.22 | 176228 | 186449
17 | 41:26.00 | 2:13.70 | 186450 | 196494
18 | 43:39.70 | 2:03.18 | 196495 | 205737
19 | 45:43.13 | 2:45.69 | 205738 | 218181
20 | 48:29.07 | 2:23.20 | 218182 | 228926
21 | 50:52.27 | 2:52.42 | 228927 | 241868
22 | 53:44.69 | 2:42.31 | 241869 | 254049
23 | 56:27.25 | 2:14.49 | 254050 | 264148
24 | 58:41.74 | 2:38.33 | 264149 | 276031
25 | 61:20.32 | 2:54.58 | 276032 | 289139

Характеристики диапазона извлечения и сообщения об ошибках

Выбранный диапазон

Имя файла E:\EAC\The Cruisin' Story (1955-1960)\CD 8 - 1958 Disc 2\Various Artists - The Cruisin' Story 1958 (CD2).wav

Пиковый уровень 100.0 %
Скорость извлечения 4.6 X
Качество диапазона 99.9 %
CRC теста BBAEE676
CRC копии BBAEE676
Копирование... OK

Ошибок не произошло

AccurateRip: сводка

Трек 1 : извлечено точно (доверие 1) [B71BCC50] (AR v2)
Трек 2 : извлечено точно (доверие 1) [26BF38DC] (AR v2)
Трек 3 : извлечено точно (доверие 1) [D02E03DE] (AR v2)
Трек 4 : извлечено точно (доверие 1) [4A1EBB76] (AR v2)
Трек 5 : извлечено точно (доверие 1) [D3E55E9C] (AR v2)
Трек 6 : извлечено точно (доверие 1) [4163EABA] (AR v2)
Трек 7 : извлечено точно (доверие 1) [88442085] (AR v2)
Трек 8 : извлечено точно (доверие 1) [6E928A2C] (AR v2)
Трек 9 : извлечено точно (доверие 1) [0E9041F1] (AR v2)
Трек 10 : извлечено точно (доверие 1) [B4A7FDBA] (AR v2)
Трек 11 : извлечено точно (доверие 1) [0B16B803] (AR v2)
Трек 12 : извлечено точно (доверие 1) [9C273F51] (AR v2)
Трек 13 : извлечено точно (доверие 1) [2F48DE1A] (AR v2)
Трек 14 : извлечено точно (доверие 1) [E59ECF72] (AR v2)
Трек 15 : извлечено точно (доверие 1) [D7A64FE2] (AR v2)
Трек 16 : извлечено точно (доверие 1) [963C392B] (AR v2)
Трек 17 : извлечено точно (доверие 1) [B677E340] (AR v2)
Трек 18 : извлечено точно (доверие 1) [6B4361DC] (AR v2)
Трек 19 : извлечено точно (доверие 1) [36C8E2B7] (AR v2)
Трек 20 : извлечено точно (доверие 1) [6674A195] (AR v2)
Трек 21 : извлечено точно (доверие 1) [4CB12F3E] (AR v2)
Трек 22 : извлечено точно (доверие 1) [E9527065] (AR v2)
Трек 23 : извлечено точно (доверие 1) [7F0D8286] (AR v2)
Трек 24 : извлечено точно (доверие 1) [2F64F95B] (AR v2)
Трек 25 : извлечено точно (доверие 1) [957EBBD9] (AR v2)

Все треки извлечены точно

Конец отчёта

==== Контрольная сумма отчёта 34A97D889E473BF3F38DCF909441F4A2C7E2CC25FF69AF28A5C4EFCD70F2C109 ====
[__/su_spoiler]
[_/su_spoiler]

EAC Log The Cruisin' Story - 1959
EAC Log Disc 1

Exact Audio Copy V1.0 beta 4 from 7. December 2014

Отчёт EAC об извлечении, выполненном 2. апреля 2015, 17:05

Various Artists / The Cruisin' Story 1959 (CD1)

Дисковод: HL-DT-STDVDRAM GUA0N Adapter: 1 ID: 0

Режим чтения : Достоверность
Использование точного потока : Да
Отключение кэша аудио : Да
Использование указателей C2 : Нет

Коррекция смещения при чтении : 6
Способность читать области Lead-in и Lead-out : Нет
Заполнение пропущенных сэмплов тишиной : Да
Удаление блоков с тишиной в начале и конце : Нет
При вычислениях CRC использовались нулевые сэмплы : Да
Интерфейс : Встроенный Win32-интерфейс для Win NT/2000

Выходной формат : Пользовательский кодировщик
Выбранный битрейт : 768 kBit/s
Качество : Высокий
Добавление ID3-тега : Нет
Утилита сжатия : C:\Program Files (x86)\Exact Audio Copy\FLAC\FLAC.EXE
Дополнительные параметры : -6 -V -T "ARTIST=%artist%" -T "TITLE=%title%" -T "ALBUM=%albumtitle%" -T "DATE=%year%" -T "TRACKNUMBER=%tracknr%" -T "GENRE=%genre%" -T "COMMENT=%comment%" -T "BAND=%albuminterpret%" -T "ALBUMARTIST=%albuminterpret%" -T "COMPOSER=%composer%" %haslyrics%--tag-from-file=LYRICS="%lyricsfile%"%haslyrics% -T "DISCNUMBER=%cdnumber%" -T "TOTALDISCS=%totalcds%" -T "TOTALTRACKS=%numtracks%" %hascover%--picture="%coverfile%"%hascover% %source% -o %dest%

TOC извлечённого CD

Трек | Старт | Длительность | Начальный сектор | Конечный сектор
---------------------------------------------------------------------
1 | 0:00.00 | 2:05.20 | 0 | 9394
2 | 2:05.20 | 3:22.63 | 9395 | 24607
3 | 5:28.08 | 2:21.19 | 24608 | 35201
4 | 7:49.27 | 2:29.21 | 35202 | 46397
5 | 10:18.48 | 3:12.70 | 46398 | 60867
6 | 13:31.43 | 2:53.37 | 60868 | 73879
7 | 16:25.05 | 2:36.52 | 73880 | 85631
8 | 19:01.57 | 2:28.02 | 85632 | 96733
9 | 21:29.59 | 2:23.04 | 96734 | 107462
10 | 23:52.63 | 2:22.71 | 107463 | 118183
11 | 26:15.59 | 3:12.52 | 118184 | 132635
12 | 29:28.36 | 3:09.45 | 132636 | 146855
13 | 32:38.06 | 2:09.43 | 146856 | 156573
14 | 34:47.49 | 2:42.18 | 156574 | 168741
15 | 37:29.67 | 1:53.36 | 168742 | 177252
16 | 39:23.28 | 2:01.59 | 177253 | 186386
17 | 41:25.12 | 2:37.10 | 186387 | 198171
18 | 44:02.22 | 2:25.26 | 198172 | 209072
19 | 46:27.48 | 2:02.18 | 209073 | 218240
20 | 48:29.66 | 2:31.10 | 218241 | 229575
21 | 51:01.01 | 1:59.14 | 229576 | 238514
22 | 53:00.15 | 2:23.38 | 238515 | 249277
23 | 55:23.53 | 2:25.41 | 249278 | 260193
24 | 57:49.19 | 1:53.33 | 260194 | 268701
25 | 59:42.52 | 2:06.03 | 268702 | 278154

Характеристики диапазона извлечения и сообщения об ошибках

Выбранный диапазон

Имя файла E:\EAC\The Cruisin' Story (1955-1960)\CD 9 - 1959 Disc 1\Various Artists - The Cruisin' Story 1959 (CD1).wav

Пиковый уровень 98.8 %
Скорость извлечения 4.6 X
Качество диапазона 100.0 %
CRC теста 1970B80D
CRC копии 1970B80D
Копирование... OK

Ошибок не произошло

AccurateRip: сводка

Трек 1 : извлечено точно (доверие 2) [86E3E314] (AR v2)
Трек 2 : извлечено точно (доверие 2) [7B53444F] (AR v2)
Трек 3 : извлечено точно (доверие 2) [A58FDF17] (AR v2)
Трек 4 : извлечено точно (доверие 2) [B54A4F57] (AR v2)
Трек 5 : извлечено точно (доверие 2) [463898ED] (AR v2)
Трек 6 : извлечено точно (доверие 3) [619E7954] (AR v2)
Трек 7 : извлечено точно (доверие 2) [2AE49D38] (AR v2)
Трек 8 : извлечено точно (доверие 2) [FEF0D1B3] (AR v2)
Трек 9 : извлечено точно (доверие 2) [D7C5E9EB] (AR v2)
Трек 10 : извлечено точно (доверие 2) [0DB1AC8E] (AR v2)
Трек 11 : извлечено точно (доверие 2) [EB8B1A17] (AR v2)
Трек 12 : извлечено точно (доверие 2) [0EB1203D] (AR v2)
Трек 13 : извлечено точно (доверие 2) [83CBAA6E] (AR v2)
Трек 14 : извлечено точно (доверие 2) [3A8D6953] (AR v2)
Трек 15 : извлечено точно (доверие 2) [0D83B222] (AR v2)
Трек 16 : извлечено точно (доверие 2) [975074DE] (AR v2)
Трек 17 : извлечено точно (доверие 2) [1A4966B8] (AR v2)
Трек 18 : извлечено точно (доверие 2) [C5F244AD] (AR v2)
Трек 19 : извлечено точно (доверие 2) [D52FEFF7] (AR v2)
Трек 20 : извлечено точно (доверие 2) [FB2168C1] (AR v2)
Трек 21 : извлечено точно (доверие 2) [2956D996] (AR v2)
Трек 22 : извлечено точно (доверие 2) [24D47E7D] (AR v2)
Трек 23 : извлечено точно (доверие 2) [7FCC622D] (AR v2)
Трек 24 : извлечено точно (доверие 2) [F0105834] (AR v2)
Трек 25 : извлечено точно (доверие 2) [E30873C0] (AR v2)

Все треки извлечены точно

Конец отчёта

==== Контрольная сумма отчёта 9DD735B5BDEE076150541AAE622F1210473CBC1FFFB63F861FE3531D4306DA44 ====
[__/su_spoiler]

EAC Log Disc 2

Exact Audio Copy V1.0 beta 4 from 7. December 2014

Отчёт EAC об извлечении, выполненном 2. апреля 2015, 17:57

Various Artists / The Cruisin' Story 1959 (CD2)

Дисковод: HL-DT-STDVDRAM GUA0N Adapter: 1 ID: 0

Режим чтения : Достоверность
Использование точного потока : Да
Отключение кэша аудио : Да
Использование указателей C2 : Нет

Коррекция смещения при чтении : 6
Способность читать области Lead-in и Lead-out : Нет
Заполнение пропущенных сэмплов тишиной : Да
Удаление блоков с тишиной в начале и конце : Нет
При вычислениях CRC использовались нулевые сэмплы : Да
Интерфейс : Встроенный Win32-интерфейс для Win NT/2000

Выходной формат : Пользовательский кодировщик
Выбранный битрейт : 768 kBit/s
Качество : Высокий
Добавление ID3-тега : Нет
Утилита сжатия : C:\Program Files (x86)\Exact Audio Copy\FLAC\FLAC.EXE
Дополнительные параметры : -6 -V -T "ARTIST=%artist%" -T "TITLE=%title%" -T "ALBUM=%albumtitle%" -T "DATE=%year%" -T "TRACKNUMBER=%tracknr%" -T "GENRE=%genre%" -T "COMMENT=%comment%" -T "BAND=%albuminterpret%" -T "ALBUMARTIST=%albuminterpret%" -T "COMPOSER=%composer%" %haslyrics%--tag-from-file=LYRICS="%lyricsfile%"%haslyrics% -T "DISCNUMBER=%cdnumber%" -T "TOTALDISCS=%totalcds%" -T "TOTALTRACKS=%numtracks%" %hascover%--picture="%coverfile%"%hascover% %source% -o %dest%

TOC извлечённого CD

Трек | Старт | Длительность | Начальный сектор | Конечный сектор
---------------------------------------------------------------------
1 | 0:00.00 | 2:06.00 | 0 | 9449
2 | 2:06.00 | 2:42.73 | 9450 | 21672
3 | 4:48.73 | 2:40.64 | 21673 | 33736
4 | 7:29.62 | 2:02.46 | 33737 | 42932
5 | 9:32.33 | 2:14.07 | 42933 | 52989
6 | 11:46.40 | 2:32.66 | 52990 | 64455
7 | 14:19.31 | 2:04.36 | 64456 | 73791
8 | 16:23.67 | 2:39.08 | 73792 | 85724
9 | 19:03.00 | 2:11.02 | 85725 | 95551
10 | 21:14.02 | 4:40.16 | 95552 | 116567
11 | 25:54.18 | 2:06.59 | 116568 | 126076
12 | 28:01.02 | 2:08.55 | 126077 | 135731
13 | 30:09.57 | 3:01.12 | 135732 | 149318
14 | 33:10.69 | 2:39.46 | 149319 | 161289
15 | 35:50.40 | 2:04.57 | 161290 | 170646
16 | 37:55.22 | 2:04.73 | 170647 | 180019
17 | 40:00.20 | 2:18.37 | 180020 | 190406
18 | 42:18.57 | 2:15.67 | 190407 | 200598
19 | 44:34.49 | 2:06.26 | 200599 | 210074
20 | 46:41.00 | 2:27.61 | 210075 | 221160
21 | 49:08.61 | 2:38.68 | 221161 | 233078
22 | 51:47.54 | 2:44.68 | 233079 | 245446
23 | 54:32.47 | 2:23.58 | 245447 | 256229
24 | 56:56.30 | 1:55.21 | 256230 | 264875
25 | 58:51.51 | 2:32.37 | 264876 | 276312

Характеристики диапазона извлечения и сообщения об ошибках

Выбранный диапазон

Имя файла E:\EAC\The Cruisin' Story (1955-1960)\CD 10 - 1959 Disc 2\Various Artists - The Cruisin' Story 1959 (CD2).wav

Пиковый уровень 98.8 %
Скорость извлечения 4.6 X
Качество диапазона 100.0 %
CRC теста 7DEC1100
CRC копии 7DEC1100
Копирование... OK

Ошибок не произошло

AccurateRip: сводка

Трек 1 : извлечено точно (доверие 2) [5B4A22DC] (AR v2)
Трек 2 : извлечено точно (доверие 2) [8FCAB119] (AR v2)
Трек 3 : извлечено точно (доверие 2) [61AF17E5] (AR v2)
Трек 4 : извлечено точно (доверие 2) [C93358A1] (AR v2)
Трек 5 : извлечено точно (доверие 2) [38D17C9C] (AR v2)
Трек 6 : извлечено точно (доверие 2) [4529AA0F] (AR v2)
Трек 7 : извлечено точно (доверие 2) [5B1ACE73] (AR v2)
Трек 8 : извлечено точно (доверие 2) [01B66533] (AR v2)
Трек 9 : извлечено точно (доверие 2) [B90FD364] (AR v2)
Трек 10 : извлечено точно (доверие 2) [17948632] (AR v2)
Трек 11 : извлечено точно (доверие 2) [379C7DDE] (AR v2)
Трек 12 : извлечено точно (доверие 2) [A852D336] (AR v2)
Трек 13 : извлечено точно (доверие 2) [08265B35] (AR v2)
Трек 14 : извлечено точно (доверие 2) [EA173C3B] (AR v2)
Трек 15 : извлечено точно (доверие 2) [D36D699C] (AR v2)
Трек 16 : извлечено точно (доверие 2) [3AE61D4E] (AR v2)
Трек 17 : извлечено точно (доверие 2) [D9382D91] (AR v2)
Трек 18 : извлечено точно (доверие 2) [9BC471EA] (AR v2)
Трек 19 : извлечено точно (доверие 2) [D051FA73] (AR v2)
Трек 20 : извлечено точно (доверие 2) [3ED11430] (AR v2)
Трек 21 : извлечено точно (доверие 2) [F20AAFD0] (AR v2)
Трек 22 : извлечено точно (доверие 2) [13BBA0FF] (AR v2)
Трек 23 : извлечено точно (доверие 2) [226B346F] (AR v2)
Трек 24 : извлечено точно (доверие 2) [85D8FA91] (AR v2)
Трек 25 : извлечено точно (доверие 2) [A1B34E94] (AR v2)

Все треки извлечены точно

Конец отчёта

==== Контрольная сумма отчёта CFAE4DFA59DF84FBBEBD5A32E1C1153A3D4C9D7382D642219007983A1583D814 ====
[__/su_spoiler]
[_/su_spoiler]

EAC Log The Cruisin' Story - 1960
EAC Log Disc 1

Exact Audio Copy V1.0 beta 4 from 7. December 2014

Отчёт EAC об извлечении, выполненном 2. апреля 2015, 18:36

Various Artists / The Cruisin' Story 1960 (CD1)

Дисковод: HL-DT-STDVDRAM GUA0N Adapter: 1 ID: 0

Режим чтения : Достоверность
Использование точного потока : Да
Отключение кэша аудио : Да
Использование указателей C2 : Нет

Коррекция смещения при чтении : 6
Способность читать области Lead-in и Lead-out : Нет
Заполнение пропущенных сэмплов тишиной : Да
Удаление блоков с тишиной в начале и конце : Нет
При вычислениях CRC использовались нулевые сэмплы : Да
Интерфейс : Встроенный Win32-интерфейс для Win NT/2000

Выходной формат : Пользовательский кодировщик
Выбранный битрейт : 768 kBit/s
Качество : Высокий
Добавление ID3-тега : Нет
Утилита сжатия : C:\Program Files (x86)\Exact Audio Copy\FLAC\FLAC.EXE
Дополнительные параметры : -6 -V -T "ARTIST=%artist%" -T "TITLE=%title%" -T "ALBUM=%albumtitle%" -T "DATE=%year%" -T "TRACKNUMBER=%tracknr%" -T "GENRE=%genre%" -T "COMMENT=%comment%" -T "BAND=%albuminterpret%" -T "ALBUMARTIST=%albuminterpret%" -T "COMPOSER=%composer%" %haslyrics%--tag-from-file=LYRICS="%lyricsfile%"%haslyrics% -T "DISCNUMBER=%cdnumber%" -T "TOTALDISCS=%totalcds%" -T "TOTALTRACKS=%numtracks%" %hascover%--picture="%coverfile%"%hascover% %source% -o %dest%

TOC извлечённого CD

Трек | Старт | Длительность | Начальный сектор | Конечный сектор
---------------------------------------------------------------------
1 | 0:00.00 | 2:32.35 | 0 | 11434
2 | 2:32.35 | 2:12.63 | 11435 | 21397
3 | 4:45.23 | 2:55.47 | 21398 | 34569
4 | 7:40.70 | 2:44.00 | 34570 | 46869
5 | 10:24.70 | 1:50.69 | 46870 | 55188
6 | 12:15.64 | 1:59.40 | 55189 | 64153
7 | 14:15.29 | 2:43.51 | 64154 | 76429
8 | 16:59.05 | 1:36.32 | 76430 | 83661
9 | 18:35.37 | 2:38.74 | 83662 | 95585
10 | 21:14.36 | 2:12.26 | 95586 | 105511
11 | 23:26.62 | 2:01.71 | 105512 | 114657
12 | 25:28.58 | 2:57.29 | 114658 | 127961
13 | 28:26.12 | 2:42.57 | 127962 | 140168
14 | 31:08.69 | 2:54.00 | 140169 | 153218
15 | 34:02.69 | 2:49.52 | 153219 | 165945
16 | 36:52.46 | 2:15.57 | 165946 | 176127
17 | 39:08.28 | 2:52.20 | 176128 | 189047
18 | 42:00.48 | 3:39.03 | 189048 | 205475
19 | 45:39.51 | 2:46.43 | 205476 | 217968
20 | 48:26.19 | 2:05.25 | 217969 | 227368
21 | 50:31.44 | 2:49.52 | 227369 | 240095
22 | 53:21.21 | 2:06.12 | 240096 | 249557
23 | 55:27.33 | 2:36.12 | 249558 | 261269
24 | 58:03.45 | 2:19.54 | 261270 | 271748
25 | 60:23.24 | 2:43.24 | 271749 | 283997

Характеристики диапазона извлечения и сообщения об ошибках

Выбранный диапазон

Имя файла E:\EAC\The Cruisin' Story (1955-1960)\CD 11 - 1960 Disc 1\Various Artists - The Cruisin' Story 1960 (CD1).wav

Пиковый уровень 98.8 %
Скорость извлечения 4.6 X
Качество диапазона 100.0 %
CRC теста 4C5B2A5A
CRC копии 4C5B2A5A
Копирование... OK

Ошибок не произошло

AccurateRip: сводка

Трек 1 : извлечено точно (доверие 1) [5A8FC923] (AR v2)
Трек 2 : извлечено точно (доверие 1) [67271263] (AR v2)
Трек 3 : извлечено точно (доверие 1) [36F50E29] (AR v2)
Трек 4 : извлечено точно (доверие 1) [903EFAA4] (AR v2)
Трек 5 : извлечено точно (доверие 1) [DDC6AC2F] (AR v2)
Трек 6 : извлечено точно (доверие 1) [A36B447F] (AR v2)
Трек 7 : извлечено точно (доверие 1) [F1D37233] (AR v2)
Трек 8 : извлечено точно (доверие 1) [EA7D10F0] (AR v2)
Трек 9 : извлечено точно (доверие 1) [F4ED2DF3] (AR v2)
Трек 10 : извлечено точно (доверие 1) [AD74387B] (AR v2)
Трек 11 : извлечено точно (доверие 1) [27B78AC6] (AR v2)
Трек 12 : извлечено точно (доверие 1) [B94CB903] (AR v2)
Трек 13 : извлечено точно (доверие 1) [2D6EAB36] (AR v2)
Трек 14 : извлечено точно (доверие 1) [30BF9406] (AR v2)
Трек 15 : извлечено точно (доверие 1) [9FEA4FB3] (AR v2)
Трек 16 : извлечено точно (доверие 1) [CCA745BF] (AR v2)
Трек 17 : извлечено точно (доверие 1) [26AF7C95] (AR v2)
Трек 18 : извлечено точно (доверие 1) [425C6991] (AR v2)
Трек 19 : извлечено точно (доверие 1) [60D03DF3] (AR v2)
Трек 20 : извлечено точно (доверие 1) [F944F329] (AR v2)
Трек 21 : извлечено точно (доверие 1) [679F3667] (AR v2)
Трек 22 : извлечено точно (доверие 1) [E438F18C] (AR v2)
Трек 23 : извлечено точно (доверие 1) [55E71B1A] (AR v2)
Трек 24 : извлечено точно (доверие 1) [DE1262C0] (AR v2)
Трек 25 : извлечено точно (доверие 1) [0C916536] (AR v2)

Все треки извлечены точно

Конец отчёта

==== Контрольная сумма отчёта BB37BA2B8325EEAA005A650C32C66335D10844F0F70C8D46D6DAEA05A4A14B2D ====
[__/su_spoiler]

EAC Log Disc 2

Exact Audio Copy V1.0 beta 4 from 7. December 2014

Отчёт EAC об извлечении, выполненном 2. апреля 2015, 19:17

Various Artists / The Cruisin' Story 1960 (CD2)

Дисковод: HL-DT-STDVDRAM GUA0N Adapter: 1 ID: 0

Режим чтения : Достоверность
Использование точного потока : Да
Отключение кэша аудио : Да
Использование указателей C2 : Нет

Коррекция смещения при чтении : 6
Способность читать области Lead-in и Lead-out : Нет
Заполнение пропущенных сэмплов тишиной : Да
Удаление блоков с тишиной в начале и конце : Нет
При вычислениях CRC использовались нулевые сэмплы : Да
Интерфейс : Встроенный Win32-интерфейс для Win NT/2000

Выходной формат : Пользовательский кодировщик
Выбранный битрейт : 768 kBit/s
Качество : Высокий
Добавление ID3-тега : Нет
Утилита сжатия : C:\Program Files (x86)\Exact Audio Copy\FLAC\FLAC.EXE
Дополнительные параметры : -6 -V -T "ARTIST=%artist%" -T "TITLE=%title%" -T "ALBUM=%albumtitle%" -T "DATE=%year%" -T "TRACKNUMBER=%tracknr%" -T "GENRE=%genre%" -T "COMMENT=%comment%" -T "BAND=%albuminterpret%" -T "ALBUMARTIST=%albuminterpret%" -T "COMPOSER=%composer%" %haslyrics%--tag-from-file=LYRICS="%lyricsfile%"%haslyrics% -T "DISCNUMBER=%cdnumber%" -T "TOTALDISCS=%totalcds%" -T "TOTALTRACKS=%numtracks%" %hascover%--picture="%coverfile%"%hascover% %source% -o %dest%

TOC извлечённого CD

Трек | Старт | Длительность | Начальный сектор | Конечный сектор
---------------------------------------------------------------------
1 | 0:00.00 | 3:16.17 | 0 | 14716
2 | 3:16.17 | 2:04.61 | 14717 | 24077
3 | 5:21.03 | 2:27.61 | 24078 | 35163
4 | 7:48.64 | 2:22.39 | 35164 | 45852
5 | 10:11.28 | 2:37.52 | 45853 | 57679
6 | 12:49.05 | 2:34.06 | 57680 | 69235
7 | 15:23.11 | 2:09.47 | 69236 | 78957
8 | 17:32.58 | 2:21.54 | 78958 | 89586
9 | 19:54.37 | 2:07.45 | 89587 | 99156
10 | 22:02.07 | 2:09.51 | 99157 | 108882
11 | 24:11.58 | 2:07.59 | 108883 | 118466
12 | 26:19.42 | 2:25.43 | 118467 | 129384
13 | 28:45.10 | 1:48.11 | 129385 | 137495
14 | 30:33.21 | 2:21.57 | 137496 | 148127
15 | 32:55.03 | 3:01.24 | 148128 | 161726
16 | 35:56.27 | 2:00.43 | 161727 | 170769
17 | 37:56.70 | 2:13.20 | 170770 | 180764
18 | 40:10.15 | 2:27.03 | 180765 | 191792
19 | 42:37.18 | 2:25.06 | 191793 | 202673
20 | 45:02.24 | 2:54.49 | 202674 | 215772
21 | 47:56.73 | 3:05.25 | 215773 | 229672
22 | 51:02.23 | 3:13.26 | 229673 | 244173
23 | 54:15.49 | 1:49.68 | 244174 | 252416
24 | 56:05.42 | 2:09.44 | 252417 | 262135
25 | 58:15.11 | 2:50.73 | 262136 | 274958

Характеристики диапазона извлечения и сообщения об ошибках

Выбранный диапазон

Имя файла E:\EAC\The Cruisin' Story (1955-1960)\CD 12 - 1960 Disc 2\Various Artists - The Cruisin' Story 1960 (CD2).wav

Пиковый уровень 98.8 %
Скорость извлечения 4.6 X
Качество диапазона 100.0 %
CRC теста EB5B3A6B
CRC копии EB5B3A6B
Копирование... OK

Ошибок не произошло

AccurateRip: сводка

Трек 1 : извлечено точно (доверие 1) [C60CFDFB] (AR v2)
Трек 2 : извлечено точно (доверие 2) [2D759250] (AR v2)
Трек 3 : извлечено точно (доверие 1) [60D63DB5] (AR v2)
Трек 4 : извлечено точно (доверие 2) [C8A31F9B] (AR v2)
Трек 5 : извлечено точно (доверие 1) [1E6DC651] (AR v2)
Трек 6 : извлечено точно (доверие 1) [E5CE7493] (AR v2)
Трек 7 : извлечено точно (доверие 1) [29DF0981] (AR v2)
Трек 8 : извлечено точно (доверие 1) [4CD030B6] (AR v2)
Трек 9 : извлечено точно (доверие 1) [A0C5A8A8] (AR v2)
Трек 10 : извлечено точно (доверие 1) [75975400] (AR v2)
Трек 11 : извлечено точно (доверие 1) [4289FD66] (AR v2)
Трек 12 : извлечено точно (доверие 2) [4E8E4829] (AR v2)
Трек 13 : извлечено точно (доверие 1) [315F2572] (AR v2)
Трек 14 : извлечено точно (доверие 1) [ED93C93F] (AR v2)
Трек 15 : извлечено точно (доверие 1) [AB0E8C66] (AR v2)
Трек 16 : извлечено точно (доверие 2) [33D3D2AB] (AR v2)
Трек 17 : извлечено точно (доверие 1) [86F71730] (AR v2)
Трек 18 : извлечено точно (доверие 1) [AA3E200A] (AR v2)
Трек 19 : извлечено точно (доверие 2) [A860603F] (AR v2)
Трек 20 : извлечено точно (доверие 1) [BC584320] (AR v2)
Трек 21 : извлечено точно (доверие 1) [DEAA6ED3] (AR v2)
Трек 22 : извлечено точно (доверие 1) [81CBEDE3] (AR v2)
Трек 23 : извлечено точно (доверие 1) [C9B8E839] (AR v2)
Трек 24 : извлечено точно (доверие 2) [A012F108] (AR v2)
Трек 25 : извлечено точно (доверие 1) [2DFBA9E4] (AR v2)

Все треки извлечены точно

Конец отчёта

==== Контрольная сумма отчёта D4C9302B2D9D247D9C2A82E0E7D5079703E07B33D7C521D6610809486D76B433 ====
[__/su_spoiler]
[_/su_spoiler]

CUETools 2.1.5 Logs
CUETools 2.1.5 Log The Cruisin' Story - 1956
CUETools 2.1.5 Log Disc 1

[CUETools log; Date: 4/9/2015 7:08:07 PM; Version: 2.1.5]
[CTDB TOCID: ETBHzlZByY2UtFdsS_g0TcIs30w-] found.
Track | CTDB Status
1 | (3/3) Accurately ripped
2 | (3/3) Accurately ripped
3 | (3/3) Accurately ripped
4 | (3/3) Accurately ripped
5 | (3/3) Accurately ripped
6 | (3/3) Accurately ripped
7 | (3/3) Accurately ripped
8 | (3/3) Accurately ripped
9 | (3/3) Accurately ripped
10 | (3/3) Accurately ripped
11 | (3/3) Accurately ripped
12 | (2/3) Accurately ripped
13 | (3/3) Accurately ripped
14 | (3/3) Accurately ripped
15 | (3/3) Accurately ripped
16 | (3/3) Accurately ripped
17 | (3/3) Accurately ripped
18 | (3/3) Accurately ripped
19 | (3/3) Accurately ripped
20 | (3/3) Accurately ripped
21 | (3/3) Accurately ripped
22 | (3/3) Accurately ripped
23 | (3/3) Accurately ripped
24 | (3/3) Accurately ripped
25 | (3/3) Accurately ripped
[AccurateRip ID: 00372c33-03e256f3-710ea819] found.
Track [ CRC | V2 ] Status
01 [9d774242|9c799cc8] (0+1/1) Accurately ripped
02 [b590477b|889dc353] (0+1/1) Accurately ripped
03 [0e9c468e|8415ad33] (0+1/1) Accurately ripped
04 [98a131d3|f096754d] (0+1/1) Accurately ripped
05 [3d9e2e48|2e767e8b] (0+1/1) Accurately ripped
06 [38778262|853c183f] (0+1/1) Accurately ripped
07 [1774ff90|a1313193] (0+1/1) Accurately ripped
08 [8539a1f1|43a6e9d8] (0+1/1) Accurately ripped
09 [954f5e5d|414a28e3] (0+1/1) Accurately ripped
10 [48e0d12d|83ff7253] (0+1/1) Accurately ripped
11 [089c5b92|3662089c] (0+1/1) Accurately ripped
12 [8f8011b5|493110aa] (0+1/1) Accurately ripped
13 [3598c7ac|830abd32] (0+1/1) Accurately ripped
14 [99dc0bdd|3f3fe871] (0+1/1) Accurately ripped
15 [d44eb54f|03e0cefe] (0+1/1) Accurately ripped
16 [89c74d20|c024519c] (0+1/1) Accurately ripped
17 [5e08cf57|a8710439] (0+1/1) Accurately ripped
18 [ebcda8c4|6c7b54c5] (0+1/1) Accurately ripped
19 [6c9c7cc5|a0045c3c] (0+1/1) Accurately ripped
20 [c2df792a|23d5aa28] (0+1/1) Accurately ripped
21 [bd086cbd|d3f6ff5f] (0+1/1) Accurately ripped
22 [92892069|2db41e82] (0+1/1) Accurately ripped
23 [49b7a085|e43d7b16] (0+1/1) Accurately ripped
24 [126d323b|9127954d] (0+1/1) Accurately ripped
25 [666d3a97|9ad9959a] (0+1/1) Accurately ripped

Track Peak [ CRC32 ] [W/O NULL] [ LOG ]
-- 98.8 [88982A1F] [D0101636] CRC32
01 98.6 [A2253ECC] [6660EA2B]
02 98.3 [78187DEB] [D12D9328]
03 98.8 [7CC1EF91] [A59F0806]
04 98.5 [2EA8AADE] [71F13511]
05 98.3 [7D0A9863] [4F28ACCB]
06 98.3 [48F3E853] [41A99CC2]
07 98.4 [90A2A9B4] [FB3479CE]
08 98.2 [AA33A23E] [37ED246F]
09 98.2 [1EDB4F50] [6D5B44D7]
10 98.4 [038EC20D] [44E3DCB7]
11 98.2 [D11EFBCF] [FC4CE71B]
12 98.6 [6DB15E8D] [D1CB54CB]
13 98.4 [70F08570] [C64461B1]
14 98.5 [48577186] [2519833A]
15 98.4 [543B0804] [A683BA1A]
16 98.4 [F1E6AF87] [5EEBBE1F]
17 95.9 [14BCD0FC] [BAA2B96C]
18 98.4 [FFEFEC14] [E6DD8048]
19 94.5 [0FC87665] [4B5A8912]
20 98.3 [BA9379E0] [FBD9284C]
21 98.6 [81A3A40E] [7354083A]
22 98.1 [38544005] [EFEFDD99]
23 94.8 [78488C65] [164DEDE2]
24 98.4 [FE83AC7A] [57B8395C]
25 98.3 [91E6BC66] [ED778D8F]
[__/su_spoiler]

CUETools 2.1.5 Log Disc 2

[CUETools log; Date: 4/9/2015 7:08:12 PM; Version: 2.1.5]
[CTDB TOCID: FuZR0zDTybTVOxlRlZRWK69TmZA-] found.
Track | CTDB Status
1 | (2/2) Accurately ripped
2 | (2/2) Accurately ripped
3 | (2/2) Accurately ripped
4 | (2/2) Accurately ripped
5 | (2/2) Accurately ripped
6 | (2/2) Accurately ripped
7 | (2/2) Accurately ripped
8 | (2/2) Accurately ripped
9 | (2/2) Accurately ripped
10 | (2/2) Accurately ripped
11 | (2/2) Accurately ripped
12 | (2/2) Accurately ripped
13 | (2/2) Accurately ripped
14 | (2/2) Accurately ripped
15 | (2/2) Accurately ripped
16 | (2/2) Accurately ripped
17 | (2/2) Accurately ripped
18 | (2/2) Accurately ripped
19 | (2/2) Accurately ripped
20 | (2/2) Accurately ripped
21 | (2/2) Accurately ripped
22 | (2/2) Accurately ripped
23 | (2/2) Accurately ripped
24 | (2/2) Accurately ripped
25 | (2/2) Accurately ripped
[AccurateRip ID: 00388ac5-03fa7db9-630ef719] found.
Track [ CRC | V2 ] Status
01 [d1c807a8|dbcc1610] (0+1/1) Accurately ripped
02 [08faabcc|959d1665] (0+1/1) Accurately ripped
03 [2da8dd24|c4ea2caa] (0+1/1) Accurately ripped
04 [bed68cf5|6e1b526c] (0+1/1) Accurately ripped
05 [496cf8ff|83eafd31] (0+1/1) Accurately ripped
06 [9cc33785|dbd832e1] (0+1/1) Accurately ripped
07 [a00165b3|e92f8dad] (0+1/1) Accurately ripped
08 [9ed65e57|05b2b1f0] (0+1/1) Accurately ripped
09 [131de117|34d0aac2] (0+1/1) Accurately ripped
10 [54e1fa96|21230df7] (0+1/1) Accurately ripped
11 [b438898a|1a133576] (0+1/1) Accurately ripped
12 [09053317|b68f351c] (0+1/1) Accurately ripped
13 [9fd9097c|45fe0eef] (0+1/1) Accurately ripped
14 [f8c970b6|5590accb] (0+1/1) Accurately ripped
15 [f53f6593|6c28da9b] (0+1/1) Accurately ripped
16 [717cbb1d|b48448b0] (0+1/1) Accurately ripped
17 [eb03e97f|9f68aaa0] (0+1/1) Accurately ripped
18 [74fa8880|b34a026e] (0+1/1) Accurately ripped
19 [8f900ad9|a27e7038] (0+1/1) Accurately ripped
20 [ca42f606|4a227df0] (0+1/1) Accurately ripped
21 [4b054b92|7416e7e1] (0+1/1) Accurately ripped
22 [d907978b|67297e0f] (0+1/1) Accurately ripped
23 [748b6290|0165573a] (0+1/1) Accurately ripped
24 [c744c157|a971fa1d] (0+1/1) Accurately ripped
25 [98dc129a|06586e90] (0+1/1) Accurately ripped

Track Peak [ CRC32 ] [W/O NULL] [ LOG ]
-- 98.7 [42F4CCCB] [43BDBA08] CRC32
01 98.3 [23E57396] [27378DA8]
02 98.4 [3166E3E4] [A68A4D18]
03 98.2 [783D8698] [2137BF87]
04 98.6 [11117DCD] [FDC67D58]
05 95.2 [E0643ABD] [F90FF1B5]
06 98.3 [1FF33C2E] [F0F48E7E]
07 98.3 [A797CDD0] [DB4AA18C]
08 98.3 [C02D30EF] [093752E4]
09 98.1 [62FA4886] [862BB020]
10 88.7 [8652B49B] [5C00FB0E]
11 98.4 [D33136FC] [6EAA2CDE]
12 98.3 [14913C0F] [9547874D]
13 98.3 [3015B0DC] [75BD15A2]
14 98.6 [EFF81C45] [6D95B578]
15 98.3 [9FEF1FB1] [92BB2803]
16 98.3 [C758CAF1] [5E3D4CAE]
17 98.6 [EFA89539] [AC2C6202]
18 98.4 [009AE1DE] [C331DF05]
19 84.0 [417ECE80] [30FBFF69]
20 98.3 [A148E11B] [18BFEA60]
21 98.3 [2E531DC4] [5E455093]
22 83.7 [2A8EC15E] [FC35992E]
23 98.3 [77339D1E] [A373D276]
24 98.7 [A8A2C9D8] [C054ABE3]
25 98.3 [57707F27] [5F0F54F9]
[__/su_spoiler]
[_/su_spoiler]

CUETools 2.1.5 Log The Cruisin' Story - 1957
CUETools 2.1.5 Log Disc 1

[CUETools log; Date: 4/9/2015 7:08:16 PM; Version: 2.1.5]
[CTDB TOCID: sFfk3XhxB0o6GG07R7RsMbuOc_0-] found.
Track | CTDB Status
1 | (3/3) Accurately ripped
2 | (3/3) Accurately ripped
3 | (3/3) Accurately ripped
4 | (3/3) Accurately ripped
5 | (3/3) Accurately ripped
6 | (3/3) Accurately ripped
7 | (3/3) Accurately ripped
8 | (3/3) Accurately ripped
9 | (3/3) Accurately ripped
10 | (3/3) Accurately ripped
11 | (3/3) Accurately ripped
12 | (3/3) Accurately ripped
13 | (3/3) Accurately ripped
14 | (2/3) Accurately ripped
15 | (3/3) Accurately ripped
16 | (3/3) Accurately ripped
17 | (3/3) Accurately ripped
18 | (3/3) Accurately ripped
19 | (3/3) Accurately ripped
20 | (3/3) Accurately ripped
21 | (3/3) Accurately ripped
22 | (3/3) Accurately ripped
23 | (3/3) Accurately ripped
24 | (3/3) Accurately ripped
25 | (3/3) Accurately ripped
[AccurateRip ID: 0033cc69-03a208cd-3f0d9219] found.
Track [ CRC | V2 ] Status
01 [f2e12bf9|1cb3be44] (0+1/1) Accurately ripped
02 [816c4be1|ea7b5fb7] (0+1/1) Accurately ripped
03 [c6d91164|7ca01a88] (0+1/1) Accurately ripped
04 [442e9f2e|9aff73c8] (0+1/1) Accurately ripped
05 [c0169d2c|19e16787] (0+1/1) Accurately ripped
06 [10191e95|8ee88a4d] (0+1/1) Accurately ripped
07 [6c299d90|86e7cb61] (0+1/1) Accurately ripped
08 [d580434d|fa16cb28] (0+1/1) Accurately ripped
09 [74d44b47|18848ad3] (0+1/1) Accurately ripped
10 [5990788f|3b57db09] (0+1/1) Accurately ripped
11 [6ab8d949|3e0c6805] (0+1/1) Accurately ripped
12 [30f73a6a|91eaf995] (0+1/1) Accurately ripped
13 [e573d176|a433db43] (0+1/1) Accurately ripped
14 [9e84ddb9|5dfa5c8e] (0+1/1) Accurately ripped
15 [6424b834|8728df53] (0+1/1) Accurately ripped
16 [b4999b78|27632ac8] (0+1/1) Accurately ripped
17 [7710d3c1|8cdeb5ad] (0+1/1) Accurately ripped
18 [e4f427cf|8d9fc8a7] (0+1/1) Accurately ripped
19 [fa90b7d9|d90ed2f5] (0+1/1) Accurately ripped
20 [88ce8df4|ba761963] (0+1/1) Accurately ripped
21 [d3ac631b|85a34092] (0+1/1) Accurately ripped
22 [7836b177|bdd113f3] (0+1/1) Accurately ripped
23 [24395d2e|5ab72363] (0+1/1) Accurately ripped
24 [a4397b47|0a0bc953] (0+1/1) Accurately ripped
25 [f0ee04ab|c8610f7b] (0+1/1) Accurately ripped

Track Peak [ CRC32 ] [W/O NULL] [ LOG ]
-- 98.8 [6A7BB025] [EF0CD167] CRC32
01 98.4 [0AD98973] [8448AFC3]
02 98.3 [8353D214] [5DC3F45B]
03 98.5 [719F0BD5] [DD8CDEB8]
04 98.3 [72AEF163] [4A618612]
05 98.4 [EBC7ED50] [67A2113B]
06 98.3 [CAF2B0B7] [42A2FFF8]
07 98.7 [FF73E075] [5CADA8D3]
08 94.1 [C2BB5548] [BDC58256]
09 98.4 [A82EC12C] [B3CFCDA0]
10 98.4 [500CD167] [3A15AFDE]
11 98.4 [DDEF8E15] [8D31C50B]
12 98.4 [CEDDD9BD] [044F2C01]
13 98.8 [3487B72B] [ABD0415B]
14 98.4 [A5D3F892] [AAF0AF5C]
15 98.2 [06A6A888] [A99BA24F]
16 98.3 [33C8D85D] [EABD305C]
17 98.3 [A1DAC5F2] [9EAD1171]
18 98.3 [967ECC17] [31848A59]
19 98.6 [679D845B] [ABB12615]
20 98.3 [E56F1181] [53560080]
21 98.8 [9D6B0697] [46DB5D32]
22 98.3 [B74BDF28] [0E4C5617]
23 98.3 [EFEE9245] [6B9A3D19]
24 98.3 [700709AB] [56648F64]
25 98.3 [35E94F68] [E3DED446]
[__/su_spoiler]

CUETools 2.1.5 Log Disc 2

[CUETools log; Date: 4/9/2015 7:08:20 PM; Version: 2.1.5]
[CTDB TOCID: BdZDyk8rg2rHEQ9S1WI2YcuzqO8-] found.
Track | CTDB Status
1 | (3/3) Accurately ripped
2 | (3/3) Accurately ripped
3 | (3/3) Accurately ripped
4 | (3/3) Accurately ripped
5 | (3/3) Accurately ripped
6 | (3/3) Accurately ripped
7 | (3/3) Accurately ripped
8 | (3/3) Accurately ripped
9 | (3/3) Accurately ripped
10 | (3/3) Accurately ripped
11 | (3/3) Accurately ripped
12 | (3/3) Accurately ripped
13 | (3/3) Accurately ripped
14 | (3/3) Accurately ripped
15 | (3/3) Accurately ripped
16 | (3/3) Accurately ripped
17 | (3/3) Accurately ripped
18 | (3/3) Accurately ripped
19 | (3/3) Accurately ripped
20 | (3/3) Accurately ripped
21 | (3/3) Accurately ripped
22 | (3/3) Accurately ripped
23 | (3/3) Accurately ripped
24 | (3/3) Accurately ripped
25 | (3/3) Accurately ripped
[AccurateRip ID: 0036cbba-03da8e7b-540e6819] found.
Track [ CRC | V2 ] Status
01 [cc06c1f4|f92305b6] (0+1/1) Accurately ripped
02 [56ddc5d0|96cf44c2] (0+1/1) Accurately ripped
03 [623f83e0|b97ad002] (0+1/1) Accurately ripped
04 [bdae40c2|848edf1c] (0+1/1) Accurately ripped
05 [b2c219cb|a6128b4e] (0+1/1) Accurately ripped
06 [2d199518|ea1b5078] (0+1/1) Accurately ripped
07 [0e2a9b29|36d591b1] (0+1/1) Accurately ripped
08 [5038f9f9|56fe4f0f] (0+1/1) Accurately ripped
09 [bdc1ef10|c366040c] (0+1/1) Accurately ripped
10 [ab5ed49c|c8272143] (0+1/1) Accurately ripped
11 [d9fd5743|3bf7b54a] (0+1/1) Accurately ripped
12 [33c983e7|5c634e85] (0+1/1) Accurately ripped
13 [7e3038bd|0255e9e9] (0+1/1) Accurately ripped
14 [f20b1425|2bc21267] (0+1/1) Accurately ripped
15 [c26378ea|bba82875] (0+1/1) Accurately ripped
16 [9b07d62a|dad83e9c] (0+1/1) Accurately ripped
17 [65288931|a6ed2605] (0+1/1) Accurately ripped
18 [78fac40c|c01b1264] (0+1/1) Accurately ripped
19 [5c99148f|38b485fe] (0+1/1) Accurately ripped
20 [be52e13f|3c2ccf67] (0+1/1) Accurately ripped
21 [39cbd0d1|12f530cf] (0+1/1) Accurately ripped
22 [6d2e6c07|b192817a] (0+1/1) Accurately ripped
23 [9373c1e7|01885685] (0+1/1) Accurately ripped
24 [a5e31406|9cf129da] (0+1/1) Accurately ripped
25 [3c45f964|1de7ab9a] (0+1/1) Accurately ripped

Track Peak [ CRC32 ] [W/O NULL] [ LOG ]
-- 98.8 [43D19E8C] [7F0E5B58] CRC32
01 98.3 [CB601C2D] [63DE99EF]
02 98.3 [F49F7736] [1909BFF1]
03 98.3 [F5A2EDFC] [2A023AA4]
04 98.3 [06C7EB10] [C485A165]
05 98.5 [2A675489] [03E87DF5]
06 98.7 [4D19188C] [B1836015]
07 95.3 [187E4930] [5EDABD68]
08 98.3 [C2BE4479] [0021A04F]
09 98.4 [548400D4] [9DE034A1]
10 98.3 [FC6A8F86] [B47D9A75]
11 98.6 [0399AF3E] [598FB5D9]
12 98.3 [3963FBB8] [DEEFDDEC]
13 98.7 [6F4EAFB3] [BA9D41BA]
14 98.5 [88061432] [FB7445DD]
15 98.3 [223A8D0F] [DD04418A]
16 98.6 [F813AFBD] [2F2533BD]
17 98.4 [38024ED7] [A86B3A37]
18 98.4 [8800B570] [42864F28]
19 98.3 [221D6680] [43BE4AC0]
20 98.3 [5144902E] [7695A3F9]
21 98.3 [BB8D85CC] [917F369A]
22 98.3 [4B1E9B79] [12CD6854]
23 98.8 [B31A25E1] [C87E36CF]
24 98.3 [EA88A987] [FE217D54]
25 98.3 [8B346248] [62B2DC02]
[__/su_spoiler]
[_/su_spoiler]

CUETools 2.1.5 Log The Cruisin' Story - 1958
CUETools 2.1.5 Log Disc 1

[CUETools log; Date: 4/9/2015 7:08:25 PM; Version: 2.1.5]
[CTDB TOCID: UZTmHPTil6NRAc90VB4JB8MR6Qo-] found.
Track | CTDB Status
1 | (3/3) Accurately ripped
2 | (3/3) Accurately ripped
3 | (3/3) Accurately ripped
4 | (3/3) Accurately ripped
5 | (3/3) Accurately ripped
6 | (3/3) Accurately ripped
7 | (3/3) Accurately ripped
8 | (3/3) Accurately ripped
9 | (3/3) Accurately ripped
10 | (3/3) Accurately ripped
11 | (3/3) Accurately ripped
12 | (3/3) Accurately ripped
13 | (3/3) Accurately ripped
14 | (3/3) Accurately ripped
15 | (3/3) Accurately ripped
16 | (3/3) Accurately ripped
17 | (3/3) Accurately ripped
18 | (3/3) Accurately ripped
19 | (3/3) Accurately ripped
20 | (3/3) Accurately ripped
21 | (3/3) Accurately ripped
22 | (3/3) Accurately ripped
23 | (3/3) Accurately ripped
24 | (3/3) Accurately ripped
25 | (3/3) Accurately ripped
[AccurateRip ID: 00345755-03af0fc7-5f0dcc19] found.
Track [ CRC | V2 ] Status
01 [1d2822d6|756d2fab] (0+1/2) Accurately ripped
02 [fbfad75f|46cf2d49] (0+1/2) Accurately ripped
03 [8e502416|b2025687] (0+1/2) Accurately ripped
04 [c7668498|2fcb8c48] (0+1/2) Accurately ripped
05 [8bfcfd6b|287929c0] (0+1/2) Accurately ripped
06 [0e79fd62|a623e6d5] (0+1/2) Accurately ripped
07 [cdc7f52e|7a4fe2e5] (0+1/2) Accurately ripped
08 [b57ef8b6|a695372d] (0+1/2) Accurately ripped
09 [166f38f4|22c59f64] (0+1/2) Accurately ripped
10 [0e89509b|b44a5d73] (0+1/2) Accurately ripped
11 [b68e4546|91d32ae2] (0+1/2) Accurately ripped
12 [baeae408|f7cb0b3d] (0+1/2) Accurately ripped
13 [082be96a|21e24608] (0+1/2) Accurately ripped
14 [8ae505bb|e9f57905] (0+1/2) Accurately ripped
15 [5d08a149|c99c8a45] (0+1/2) Accurately ripped
16 [a2a5a25e|02b19f9a] (0+1/2) Accurately ripped
17 [5beff1bf|3cd9ed67] (0+1/2) Accurately ripped
18 [0b1538fc|c8660139] (0+1/2) Accurately ripped
19 [1da6c2ab|422574f3] (0+1/2) Accurately ripped
20 [6f5eed43|dd0b3487] (0+1/2) Accurately ripped
21 [b3d0ae24|cbdd94e1] (0+1/2) Accurately ripped
22 [b7c143a7|bf9cedc7] (0+1/2) Accurately ripped
23 [44a2c9d4|a91950aa] (0+1/2) Accurately ripped
24 [56ffb46a|87db0bc9] (0+1/2) Accurately ripped
25 [d5b786e0|ff02b577] (0+1/2) Accurately ripped

Track Peak [ CRC32 ] [W/O NULL] [ LOG ]
-- 98.8 [CB35801F] [D84D69E8] CRC32
01 98.3 [D92D21B7] [799C4AD6]
02 98.3 [84C700E0] [267A5BF2]
03 98.8 [F7FF1482] [23C744F0]
04 98.3 [D5C62BA3] [06B2090F]
05 98.3 [F2B3C011] [58B3FF87]
06 98.3 [5FBC51A2] [05535F72]
07 98.3 [61C16CC9] [C388680B]
08 98.5 [1CB527D3] [0CA3FD7B]
09 98.3 [603CA269] [6426FF0A]
10 98.3 [50F8075B] [84B41E9F]
11 98.3 [6208B2E5] [E5518E36]
12 98.3 [F024848E] [0A7AB9BA]
13 98.3 [D5C4FD30] [AFD5AA7E]
14 98.3 [3D01CF02] [F61D7E16]
15 98.3 [7683FCEC] [50CC696F]
16 98.8 [3D25919A] [3D690D9D]
17 98.3 [AFDDC462] [A3D3166A]
18 98.3 [EDE3B892] [2A3B1706]
19 98.3 [C5B50A3A] [8C3A2A69]
20 88.3 [9A69CC4F] [F68E6EA7]
21 98.5 [C225FED5] [673A86C1]
22 98.3 [2ABAAAB5] [F22761C6]
23 98.3 [7E3E8600] [8C7448B1]
24 98.3 [E4C75E4C] [70551EB1]
25 98.3 [27ADC0E0] [5CA2BCC4]
[__/su_spoiler]

CUETools 2.1.5 Log Disc 2

[CUETools log; Date: 4/9/2015 7:08:29 PM; Version: 2.1.5]
[CTDB TOCID: fxhYVvoNhsJuCOZGFdwKf88VfFw-] found.
Track | CTDB Status
1 | (1/1) Accurately ripped
2 | (1/1) Accurately ripped
3 | (1/1) Accurately ripped
4 | (1/1) Accurately ripped
5 | (1/1) Accurately ripped
6 | (1/1) Accurately ripped
7 | (1/1) Accurately ripped
8 | (1/1) Accurately ripped
9 | (1/1) Accurately ripped
10 | (1/1) Accurately ripped
11 | (1/1) Accurately ripped
12 | (1/1) Accurately ripped
13 | (1/1) Accurately ripped
14 | (1/1) Accurately ripped
15 | (1/1) Accurately ripped
16 | (1/1) Accurately ripped
17 | (1/1) Accurately ripped
18 | (1/1) Accurately ripped
19 | (1/1) Accurately ripped
20 | (1/1) Accurately ripped
21 | (1/1) Accurately ripped
22 | (1/1) Accurately ripped
23 | (1/1) Accurately ripped
24 | (1/1) Accurately ripped
25 | (1/1) Accurately ripped
[AccurateRip ID: 003a1664-040e09c1-4a0f0f19] found.
Track [ CRC | V2 ] Status
01 [3b1d0c07|b71bcc50] (0+1/2) Accurately ripped
02 [08b6666d|26bf38dc] (0+1/2) Accurately ripped
03 [5c186eb9|d02e03de] (0+1/2) Accurately ripped
04 [326b0966|4a1ebb76] (0+1/2) Accurately ripped
05 [f30f4503|d3e55e9c] (0+1/2) Accurately ripped
06 [a06645db|4163eaba] (0+1/2) Accurately ripped
07 [caea00db|88442085] (0+1/2) Accurately ripped
08 [6bac4704|6e928a2c] (0+1/2) Accurately ripped
09 [20c70544|0e9041f1] (0+1/2) Accurately ripped
10 [f77c68ec|b4a7fdba] (0+1/2) Accurately ripped
11 [8999338a|0b16b803] (0+1/2) Accurately ripped
12 [da0a1a79|9c273f51] (0+1/2) Accurately ripped
13 [6a9d5527|2f48de1a] (0+1/2) Accurately ripped
14 [ddba449f|e59ecf72] (0+1/2) Accurately ripped
15 [f29f353a|d7a64fe2] (0+1/2) Accurately ripped
16 [8f0448d7|963c392b] (0+1/2) Accurately ripped
17 [60699ece|b677e340] (0+1/2) Accurately ripped
18 [605aa473|6b4361dc] (0+1/2) Accurately ripped
19 [e529488c|36c8e2b7] (0+1/2) Accurately ripped
20 [05ba6cec|6674a195] (0+1/2) Accurately ripped
21 [a18ed910|4cb12f3e] (0+1/2) Accurately ripped
22 [cb83adbe|e9527065] (0+1/2) Accurately ripped
23 [e0599646|7f0d8286] (0+1/2) Accurately ripped
24 [f81a74dd|2f64f95b] (0+1/2) Accurately ripped
25 [903f2f50|957ebbd9] (0+1/2) Accurately ripped

Track Peak [ CRC32 ] [W/O NULL] [ LOG ]
-- 100.0 [BBAEE676] [C471A0FD] CRC32
01 100.0 [9DB594D1] [A99DB292]
02 100.0 [1DFDDE68] [0B333C6D]
03 100.0 [DD584FB3] [6D0E4944]
04 100.0 [46C7A9B9] [3927EA8C]
05 100.0 [0BA5FE2D] [0E7C5F20]
06 99.6 [3C7AE683] [AB04AE00]
07 100.0 [5FEC87C4] [D58C81D9]
08 100.0 [E57B247E] [F3EA9470]
09 100.0 [1022B2F6] [7AFF2AFE]
10 100.0 [23020BD5] [4958E068]
11 100.0 [B5C0ACE7] [F839F8A3]
12 100.0 [D122F168] [E7E98973]
13 100.0 [BEA55FDC] [E366737B]
14 100.0 [405BA38A] [07F8D9BB]
15 97.5 [EA19F995] [4802485A]
16 100.0 [1719D118] [E6C54BF8]
17 100.0 [27DB11FA] [F4CFC70A]
18 100.0 [A40DC15B] [47BD0119]
19 95.1 [25C8109E] [4929DD07]
20 100.0 [F0A0C34D] [0249FD20]
21 100.0 [8181638B] [3BCF66DE]
22 100.0 [3C554A8D] [AD3D032C]
23 100.0 [84D98938] [A13AB9ED]
24 100.0 [0B2CF25E] [B968541B]
25 99.0 [A2367C31] [63122652]
[__/su_spoiler]
[_/su_spoiler]

CUETools 2.1.5 Log The Cruisin' Story - 1959
CUETools 2.1.5 Log Disc 1

[CUETools log; Date: 4/9/2015 7:08:34 PM; Version: 2.1.5]
[CTDB TOCID: cKDZMowJrwK00CVQMozKD7OGb2s-] found.
Track | CTDB Status
1 | (4/4) Accurately ripped
2 | (4/4) Accurately ripped
3 | (4/4) Accurately ripped
4 | (4/4) Accurately ripped
5 | (4/4) Accurately ripped
6 | (4/4) Accurately ripped
7 | (4/4) Accurately ripped
8 | (4/4) Accurately ripped
9 | (4/4) Accurately ripped
10 | (4/4) Accurately ripped
11 | (4/4) Accurately ripped
12 | (4/4) Accurately ripped
13 | (4/4) Accurately ripped
14 | (4/4) Accurately ripped
15 | (4/4) Accurately ripped
16 | (4/4) Accurately ripped
17 | (4/4) Accurately ripped
18 | (4/4) Accurately ripped
19 | (4/4) Accurately ripped
20 | (4/4) Accurately ripped
21 | (4/4) Accurately ripped
22 | (3/4) Accurately ripped
23 | (4/4) Accurately ripped
24 | (4/4) Accurately ripped
25 | (4/4) Accurately ripped
[AccurateRip ID: 0039a0ce-04048ca1-630e7c19] found.
Track [ CRC | V2 ] Status
01 [f97efa0f|86e3e314] (0+2/2) Accurately ripped
02 [207413e9|7b53444f] (0+2/2) Accurately ripped
03 [203e0e57|a58fdf17] (0+2/2) Accurately ripped
04 [156954c2|b54a4f57] (0+2/2) Accurately ripped
05 [808b718d|463898ed] (0+2/2) Accurately ripped
06 [a4ad162e|619e7954] (0+3/3) Accurately ripped
07 [f15db020|2ae49d38] (0+2/2) Accurately ripped
08 [7fae9cbd|fef0d1b3] (0+2/2) Accurately ripped
09 [5ea9663d|d7c5e9eb] (0+2/2) Accurately ripped
10 [e1d44fd5|0db1ac8e] (0+2/2) Accurately ripped
11 [a17edacc|eb8b1a17] (0+2/2) Accurately ripped
12 [45b6643c|0eb1203d] (0+2/2) Accurately ripped
13 [380e8454|83cbaa6e] (0+2/2) Accurately ripped
14 [0bb37a0d|3a8d6953] (0+2/2) Accurately ripped
15 [214ac8ad|0d83b222] (0+2/2) Accurately ripped
16 [14541497|975074de] (0+2/2) Accurately ripped
17 [801c6550|1a4966b8] (0+2/2) Accurately ripped
18 [70280fb2|c5f244ad] (0+2/2) Accurately ripped
19 [0efaac20|d52feff7] (0+2/2) Accurately ripped
20 [2aee77bd|fb2168c1] (0+2/2) Accurately ripped
21 [2a997bb1|2956d996] (0+2/2) Accurately ripped
22 [118bb2ac|24d47e7d] (0+2/2) Accurately ripped
23 [485c0794|7fcc622d] (0+2/2) Accurately ripped
24 [ab67a354|f0105834] (0+2/2) Accurately ripped
25 [3d18a9e7|e30873c0] (0+2/2) Accurately ripped

Track Peak [ CRC32 ] [W/O NULL] [ LOG ]
-- 98.8 [1970B80D] [89D9492C] CRC32
01 98.4 [0E66EE6A] [0E507158]
02 98.3 [0DDBF3C3] [56EC6CD7]
03 98.2 [9C9668CD] [307358DA]
04 98.8 [3D99849C] [D9DDDA5E]
05 98.3 [48C5E0FD] [04FC970D]
06 98.4 [E60F0832] [79DE9521]
07 98.8 [95FE8DE2] [EDA04472]
08 98.4 [CFDC7F5A] [82DD7DD6]
09 98.3 [089923D5] [3D890BE3]
10 98.7 [300864F9] [C55C19B8]
11 98.8 [6D81687C] [2D6348B3]
12 98.3 [D3416944] [9AC3D9A0]
13 98.3 [760B2B97] [7D33CBA7]
14 98.3 [A272DA13] [56D142EA]
15 94.7 [6CE6E733] [FAD56C06]
16 89.9 [1A6F19E1] [3ABEF014]
17 98.4 [7878F32D] [8647A8AB]
18 98.3 [E6F5F312] [B514B0E5]
19 98.3 [33F6BDBB] [3458F0EA]
20 98.6 [ABD1DF6C] [D101304F]
21 98.3 [7A3A0092] [12601D72]
22 98.3 [D40BD4D7] [8A3DB8D6]
23 98.3 [176515B9] [199B90DF]
24 98.4 [C5FCD07C] [201B9813]
25 98.3 [DA685626] [FA4A9942]
[__/su_spoiler]

CUETools 2.1.5 Log Disc 2

[CUETools log; Date: 4/9/2015 7:08:39 PM; Version: 2.1.5]
[CTDB TOCID: POGXVjJhpkv9fC6FJp3GGHeNOa8-] found.
Track | CTDB Status
1 | (3/3) Accurately ripped
2 | (3/3) Accurately ripped
3 | (3/3) Accurately ripped
4 | (3/3) Accurately ripped
5 | (3/3) Accurately ripped
6 | (3/3) Accurately ripped
7 | (3/3) Accurately ripped
8 | (3/3) Accurately ripped
9 | (3/3) Accurately ripped
10 | (3/3) Accurately ripped
11 | (3/3) Accurately ripped
12 | (3/3) Accurately ripped
13 | (3/3) Accurately ripped
14 | (3/3) Accurately ripped
15 | (3/3) Accurately ripped
16 | (3/3) Accurately ripped
17 | (3/3) Accurately ripped
18 | (3/3) Accurately ripped
19 | (3/3) Accurately ripped
20 | (3/3) Accurately ripped
21 | (3/3) Accurately ripped
22 | (3/3) Accurately ripped
23 | (3/3) Accurately ripped
24 | (3/3) Accurately ripped
25 | (3/3) Accurately ripped
[AccurateRip ID: 00373564-03e2c5bf-610e6419] found.
Track [ CRC | V2 ] Status
01 [bafdbf6e|5b4a22dc] (0+2/2) Accurately ripped
02 [16d8acb6|8fcab119] (0+2/2) Accurately ripped
03 [b8207f44|61af17e5] (0+2/2) Accurately ripped
04 [a78e279d|c93358a1] (0+2/2) Accurately ripped
05 [5034f71e|38d17c9c] (0+2/2) Accurately ripped
06 [baf87920|4529aa0f] (0+2/2) Accurately ripped
07 [037a2be9|5b1ace73] (0+2/2) Accurately ripped
08 [5075e4a8|01b66533] (0+2/2) Accurately ripped
09 [ae365ba8|b90fd364] (0+2/2) Accurately ripped
10 [6dbf50d6|17948632] (0+2/2) Accurately ripped
11 [aac5ac27|379c7dde] (0+2/2) Accurately ripped
12 [e996fa56|a852d336] (0+2/2) Accurately ripped
13 [2bbd16d3|08265b35] (0+2/2) Accurately ripped
14 [163102c3|ea173c3b] (0+2/2) Accurately ripped
15 [3f376a54|d36d699c] (0+2/2) Accurately ripped
16 [189391a3|3ae61d4e] (0+2/2) Accurately ripped
17 [b5d245f0|d9382d91] (0+2/2) Accurately ripped
18 [372fed2a|9bc471ea] (0+2/2) Accurately ripped
19 [588b30c8|d051fa73] (0+2/2) Accurately ripped
20 [bb544bf4|3ed11430] (0+2/2) Accurately ripped
21 [a71a5970|f20aafd0] (0+2/2) Accurately ripped
22 [73aa55b5|13bba0ff] (0+2/2) Accurately ripped
23 [2d92186f|226b346f] (0+2/2) Accurately ripped
24 [5270d2d1|85d8fa91] (0+2/2) Accurately ripped
25 [4cba4a60|a1b34e94] (0+2/2) Accurately ripped

Track Peak [ CRC32 ] [W/O NULL] [ LOG ]
-- 98.8 [7DEC1100] [B2066102] CRC32
01 98.4 [59A6FFFC] [02E3BC3C]
02 98.8 [36A0D83D] [1AB37864]
03 98.4 [9C37D40D] [9E30E2B2]
04 98.8 [41987AD6] [5CFB69EB]
05 98.3 [0ED052B0] [A9B9CAEF]
06 98.5 [222D84B1] [10307921]
07 98.3 [33C644A8] [9710F3F9]
08 98.5 [DF53641F] [491C6FAF]
09 98.4 [0133F945] [E81AC662]
10 98.7 [2C606558] [09B8818E]
11 98.3 [586D29E8] [D160E94B]
12 98.8 [200989A3] [68D8201A]
13 98.3 [898D941E] [C613186C]
14 98.8 [DF7E30DB] [8FCDA369]
15 98.3 [344B798C] [48B5D8DC]
16 98.3 [E68FEC1C] [4CEF4F3A]
17 98.4 [B1FC1C16] [8C040351]
18 98.3 [9DAC31DE] [EEFE31BB]
19 98.4 [B7C604B3] [1F34F12E]
20 98.4 [46558992] [3527FF3C]
21 98.4 [E1F1B8E1] [9825573A]
22 98.4 [434E6D8A] [1F1BB504]
23 98.5 [8F6BC431] [F59BE726]
24 98.4 [FB03FCD0] [4210E23B]
25 98.7 [804FBC73] [5492A496]
[__/su_spoiler]
[_/su_spoiler]

CUETools 2.1.5 Log The Cruisin' Story - 1960
CUETools 2.1.5 Log Disc 1

[CUETools log; Date: 4/9/2015 7:08:43 PM; Version: 2.1.5]
[CTDB TOCID: 8Pv0scwFKIeLwJ2X5e.L3oDyHOQ-] found.
Track | CTDB Status
1 | (3/3) Accurately ripped
2 | (3/3) Accurately ripped
3 | (3/3) Accurately ripped
4 | (3/3) Accurately ripped
5 | (3/3) Accurately ripped
6 | (3/3) Accurately ripped
7 | (3/3) Accurately ripped
8 | (3/3) Accurately ripped
9 | (3/3) Accurately ripped
10 | (3/3) Accurately ripped
11 | (3/3) Accurately ripped
12 | (3/3) Accurately ripped
13 | (3/3) Accurately ripped
14 | (3/3) Accurately ripped
15 | (3/3) Accurately ripped
16 | (3/3) Accurately ripped
17 | (3/3) Accurately ripped
18 | (3/3) Accurately ripped
19 | (3/3) Accurately ripped
20 | (3/3) Accurately ripped
21 | (3/3) Accurately ripped
22 | (3/3) Accurately ripped
23 | (3/3) Accurately ripped
24 | (3/3) Accurately ripped
25 | (3/3) Accurately ripped
[AccurateRip ID: 00373a5d-03e8b0f2-400eca19] found.
Track [ CRC | V2 ] Status
01 [9f06cddc|5a8fc923] (0+1/2) Accurately ripped
02 [27f7b319|67271263] (0+1/2) Accurately ripped
03 [cb2cc1c0|36f50e29] (0+1/2) Accurately ripped
04 [a018b9fe|903efaa4] (0+1/2) Accurately ripped
05 [bd3a2e43|ddc6ac2f] (0+1/2) Accurately ripped
06 [5aff57e2|a36b447f] (0+1/2) Accurately ripped
07 [de96dd08|f1d37233] (0+1/2) Accurately ripped
08 [121f7f79|ea7d10f0] (0+1/2) Accurately ripped
09 [bd2cab26|f4ed2df3] (0+1/2) Accurately ripped
10 [86f25a68|ad74387b] (0+1/2) Accurately ripped
11 [16a67ec2|27b78ac6] (0+1/2) Accurately ripped
12 [7b488d41|b94cb903] (0+1/2) Accurately ripped
13 [6a3117d0|2d6eab36] (0+1/2) Accurately ripped
14 [bca119f7|30bf9406] (0+1/2) Accurately ripped
15 [9bcd2a4f|9fea4fb3] (0+1/2) Accurately ripped
16 [c0f67f93|cca745bf] (0+1/2) Accurately ripped
17 [251ebb18|26af7c95] (0+1/2) Accurately ripped
18 [f607f70b|425c6991] (0+1/2) Accurately ripped
19 [4d2f36b8|60d03df3] (0+1/2) Accurately ripped
20 [7575546b|f944f329] (0+1/2) Accurately ripped
21 [a61d6f04|679f3667] (0+1/2) Accurately ripped
22 [7bfe8758|e438f18c] (0+1/2) Accurately ripped
23 [481a75a3|55e71b1a] (0+1/2) Accurately ripped
24 [486b0f04|de1262c0] (0+1/2) Accurately ripped
25 [59d272ae|0c916536] (0+1/2) Accurately ripped

Track Peak [ CRC32 ] [W/O NULL] [ LOG ]
-- 98.8 [4C5B2A5A] [2CEB92D4] CRC32
01 98.4 [BA85042D] [63988482]
02 98.3 [F6EAD7E6] [4478B15B]
03 98.7 [D7F1D8DF] [779D9433]
04 98.3 [42E475FA] [22201D89]
05 98.8 [80B3682F] [8E1F6AEC]
06 98.3 [35D47CBA] [0D09FF14]
07 98.3 [4EEC5B0B] [8F182B06]
08 98.2 [048DE6CF] [C7EA8E1E]
09 98.3 [2C15583C] [81647429]
10 98.3 [40278EED] [DAE42AEB]
11 98.3 [F18D9BFD] [50F0B29B]
12 98.3 [47A24852] [C993B632]
13 98.3 [18ED58BD] [97370BA2]
14 98.2 [A7C37D85] [E3B4B28C]
15 98.3 [002E9FA2] [788E5E6B]
16 98.4 [4A85D658] [6FEB472A]
17 98.3 [F55837F1] [88470487]
18 98.3 [408E10B1] [A4DF2617]
19 95.7 [DF0035F5] [8AD447DA]
20 98.3 [0A75C2B0] [DE331B26]
21 98.3 [8082108A] [D2E63A0E]
22 98.3 [CB6AA30C] [A3B53230]
23 98.3 [B9471D31] [F717989D]
24 98.3 [EB072B54] [F5102EE9]
25 98.3 [8161E1FD] [EB7C54D0]
[__/su_spoiler]

CUETools 2.1.5 Log Disc 2

[CUETools log; Date: 4/9/2015 7:08:48 PM; Version: 2.1.5]
[CTDB TOCID: OE7BK4N4HMUaYLIkusXRTMMZGA0-] found.
Track | CTDB Status
1 | (4/4) Accurately ripped
2 | (4/4) Accurately ripped
3 | (4/4) Accurately ripped
4 | (4/4) Accurately ripped
5 | (4/4) Accurately ripped
6 | (4/4) Accurately ripped
7 | (4/4) Accurately ripped
8 | (4/4) Accurately ripped
9 | (4/4) Accurately ripped
10 | (4/4) Accurately ripped
11 | (4/4) Accurately ripped
12 | (4/4) Accurately ripped
13 | (4/4) Accurately ripped
14 | (4/4) Accurately ripped
15 | (4/4) Accurately ripped
16 | (4/4) Accurately ripped
17 | (4/4) Accurately ripped
18 | (4/4) Accurately ripped
19 | (4/4) Accurately ripped
20 | (4/4) Accurately ripped
21 | (4/4) Accurately ripped
22 | (4/4) Accurately ripped
23 | (4/4) Accurately ripped
24 | (4/4) Accurately ripped
25 | (4/4) Accurately ripped
[AccurateRip ID: 00361262-03ca30ef-7b0e5219] found.
Track [ CRC | V2 ] Status
01 [fd720a1f|c60cfdfb] (0+1/2) Accurately ripped
02 [26767b9f|2d759250] (0+2/2) Accurately ripped
03 [211032df|60d63db5] (0+1/2) Accurately ripped
04 [66fb3c5a|c8a31f9b] (0+2/2) Accurately ripped
05 [56f3bef1|1e6dc651] (0+1/2) Accurately ripped
06 [413a78b5|e5ce7493] (0+1/2) Accurately ripped
07 [66f122a9|29df0981] (0+1/2) Accurately ripped
08 [7c7651c5|4cd030b6] (0+1/2) Accurately ripped
09 [cb860f77|a0c5a8a8] (0+1/2) Accurately ripped
10 [1e4c04f6|75975400] (0+1/2) Accurately ripped
11 [5548586d|4289fd66] (0+1/2) Accurately ripped
12 [7412098f|4e8e4829] (0+2/2) Accurately ripped
13 [44352d07|315f2572] (0+1/2) Accurately ripped
14 [927d2e60|ed93c93f] (0+1/2) Accurately ripped
15 [0641284b|ab0e8c66] (0+1/2) Accurately ripped
16 [37e41fb9|33d3d2ab] (0+2/2) Accurately ripped
17 [77fb5bea|86f71730] (0+1/2) Accurately ripped
18 [09f5d0eb|aa3e200a] (0+1/2) Accurately ripped
19 [395c8eb6|a860603f] (0+2/2) Accurately ripped
20 [05d41730|bc584320] (0+1/2) Accurately ripped
21 [04a3e60c|deaa6ed3] (0+1/2) Accurately ripped
22 [1ce307ec|81cbede3] (0+1/2) Accurately ripped
23 [2d7affb0|c9b8e839] (0+1/2) Accurately ripped
24 [ff066aff|a012f108] (0+2/2) Accurately ripped
25 [d526de00|2dfba9e4] (0+1/1) Accurately ripped

Track Peak [ CRC32 ] [W/O NULL] [ LOG ]
-- 98.8 [EB5B3A6B] [378444CE] CRC32
01 98.4 [9B378904] [C02E064A]
02 98.3 [44B5D37F] [3702397C]
03 98.1 [953A8AE8] [15311121]
04 98.4 [94C79D0D] [A995C23E]
05 98.4 [FBB462CF] [B52B3D79]
06 98.3 [034435F2] [10AC2B80]
07 98.3 [4933A302] [8793EF94]
08 98.3 [890B88AD] [7BFFE6AC]
09 98.2 [7CDC2603] [6B8DA415]
10 98.3 [CBF1B51D] [B4AC9C51]
11 98.3 [82E40922] [5A4C78C6]
12 98.2 [77F39357] [1C9D7903]
13 98.8 [00DB8C94] [830576DE]
14 98.3 [37F75799] [C61E772E]
15 98.3 [71BA4C13] [91CD078C]
16 98.8 [0D096472] [4410639D]
17 98.8 [5A79470A] [50BE312A]
18 98.3 [CBB211C6] [ED777EC7]
19 98.3 [CA072145] [42265433]
20 98.4 [C3624379] [0900FE65]
21 98.4 [BEE91DD3] [43F75DBD]
22 98.3 [58463C6A] [E496645F]
23 98.6 [88707391] [81A78B62]
24 98.5 [62E924CC] [D468D645]
25 98.3 [A1B588E7] [83D80E58]
[__/su_spoiler]
[_/su_spoiler]

CD labels

imagebam.com imagebam.com imagebam.com imagebam.com imagebam.com imagebam.com imagebam.com imagebam.com imagebam.com imagebam.com

Download From
 
LMA_VA.2012.TCS_1956.rar
LMA_VA.2012.TCS_1957.rar
LMA_VA.2012.TCS_1958.rar
LMA_VA.2012.TCS_1959.rar
LMA_VA.2012.TCS_1960.rar
LMA_VA.2012.TCS_Scans.rar
 
Password: www.LosslessMA.net
 
If you encounter broken links or other problem about this publication, please let me know
and write your comment below. I will reply and fix as soon as possible.