Traveling Wilburys – Vol.1 (1988)

Traveling Wilburys - Vol.1 (1988)

Traveling Wilburys – Vol.1 (1988)
EAC Rip | FLAC Image + Cue + Log | Full Scans @600 dpi, JPG, Included
FLAC: 270 MB | 3% RAR Recovery
Label: Teldec Records / Warner Bros. | Cat#: 925 796-2 | Genre: Folk Rock

There never was a supergroup more super than the Traveling Wilburys. They had Jeff Lynne, the leader of ELO; they had Roy Orbison, the best pop singer of the ’60s; they had Tom Petty, the best roots rocker this side of Bruce Springsteen; they had a Beatle and Bob Dylan, for crying out loud! It’s impossible to picture a supergroup with a stronger pedigree than that (all that’s missing is a Rolling Stone), but in another sense it’s hard to call the Wilburys a true supergroup, since they arrived nearly two decades after the all-star craze of the ’70s peaked, and they never had the self-important air of nearly all the other supergroups. That, of course, was the key to their charm: they were a group of friends that fell together easily, almost effortlessly, to record a B-side for a single for George Harrison, then had such a good time they stuck around to record a full album, which became a hit upon its 1988 release. Looking back, the group’s success seems all the more remarkable because the first album is surely, even proudly, not a major statement. Even under the direction of Lynne, who seems incapable of not polishing a record till it gleams, it’s loose and funny, even goofy. It’s clearly a lark, which makes the offhanded, casual virtuosity of some of the songs all the more affecting, particularly the two big hits, which are sunny and warm, partially because they wryly acknowledge the mileage on these rock & roll veterans. “Handle with Care” and “End of the Line” are the two masterworks here, although Roy’s showcase, “Not Alone Anymore” — more grand and moving than anything on the Lynne-produced Mystery Girl — comes close in the stature, but its stylized melodrama is a ringer here: it, along with Dylan’s offhand heartbreak tune “Congratulations,” is the only slow thing here, and the rest of the album just overspills with good vibes, whether it’s Tom Petty’s lite reggae of “Last Night,” Jeff Lynne’s excellent Jerry Lee Lewis update “Rattled,” or Dylan’s very funny “Dirty World,” which is only slightly overshadowed by his very, very funny Springsteen swipe “Tweeter and the Monkey Man.” These high times keep The Traveling Wilburys fresh and fun years later, after Lynne’s production becomes an emblem of the time instead of transcending it.

Reviewed by Allmusic

Personnel / Credits:

• Nelson Wilbury (George Harrison) – vocals, electric and acoustic guitars, slide guitar, backing vocals
• Otis Wilbury (Jeff Lynne) – vocals, electric and acoustic guitars, keyboards, backing vocals
• Charlie T. Wilbury Jr (Tom Petty) – vocals, bass, acoustic guitar, backing vocals
• Lefty Wilbury (Roy Orbison) – vocals, acoustic guitar, backing vocals (except on “Tweeter and the Monkey Man”)
• Lucky Wilbury (Bob Dylan) – vocals, acoustic guitar, harmonica, backing vocals

Additional Info:
• Recorded Date: April–May 1988 FPSHOT, Lucky Studios and Dave Stewart Studios
• Released Date: October 18, 1988 (US) / October 24, 1988 (UK)
• Producer: Otis Wilbury, Nelson Wilbury
• More info: Here

Tracklist:
01. Handle With Care – 03:19
02. Dirty World – 03:29
03. Rattled – 02:59
04. Last Night – 03:51
05. Not Alone Any More – 03:25
06. Congratulations – 03:29
07. Heading For The Light – 03:36
08. Margarita – 03:16
09. Tweeter And The Monkey Man – 05:27
10. End Of The Line – 03:26

EAC Log
Exact Audio Copy V1.0 beta 4 from 7. December 2014

EAC extraction logfile from 13. March 2015, 20:16

Traveling Wilburys / Vol. 1 (1988, 925 796-2)

Used drive : ATAPI iHAS124 B Adapter: 1 ID: 0

Read mode : Secure
Utilize accurate stream : Yes
Defeat audio cache : Yes
Make use of C2 pointers : No

Read offset correction : 6
Overread into Lead-In and Lead-Out : No
Fill up missing offset samples with silence : Yes
Delete leading and trailing silent blocks : No
Null samples used in CRC calculations : Yes
Used interface : Installed external ASPI interface

Used output format : User Defined Encoder
Selected bitrate : 128 kBit/s
Quality : High
Add ID3 tag : Yes
Command line compressor : C:\Program Files (x86)\Exact Audio Copy\Flac\flac.exe
Additional command line options : -V -8 -T “Date=%year%” -T “Genre=%genre%” %source%

TOC of the extracted CD

Track | Start | Length | Start sector | End sector
———————————————————
1 | 0:00.33 | 3:19.15 | 33 | 14972
2 | 3:19.48 | 3:29.37 | 14973 | 30684
3 | 6:49.10 | 2:59.15 | 30685 | 44124
4 | 9:48.25 | 3:51.30 | 44125 | 61479
5 | 13:39.55 | 3:25.03 | 61480 | 76857
6 | 17:04.58 | 3:29.40 | 76858 | 92572
7 | 20:34.23 | 3:36.37 | 92573 | 108809
8 | 24:10.60 | 3:16.23 | 108810 | 123532
9 | 27:27.08 | 5:27.47 | 123533 | 148104
10 | 32:54.55 | 3:26.05 | 148105 | 163559

Range status and errors

Selected range

Filename G:\CD\Traveling Wilburys – Vol. 1.wav

Peak level 98.6 %
Extraction speed 5.0 X
Range quality 100.0 %
Test CRC 2EC88BEE
Copy CRC 2EC88BEE
Copy OK

No errors occurred

AccurateRip summary

Track 1 accurately ripped (confidence 200) [A4259F6A] (AR v2)
Track 2 accurately ripped (confidence 200) [E2235F66] (AR v2)
Track 3 accurately ripped (confidence 200) [DD876229] (AR v2)
Track 4 accurately ripped (confidence 200) [99906638] (AR v2)
Track 5 accurately ripped (confidence 200) [7C07B126] (AR v2)
Track 6 accurately ripped (confidence 200) [B4271DDC] (AR v2)
Track 7 accurately ripped (confidence 200) [28D8C350] (AR v2)
Track 8 accurately ripped (confidence 200) [E49CAA08] (AR v2)
Track 9 accurately ripped (confidence 200) [DF2D3723] (AR v2)
Track 10 accurately ripped (confidence 200) [AC6CE218] (AR v2)

All tracks accurately ripped

End of status report

—- CUETools DB Plugin V2.1.4

[CTDB TOCID: eTFvjceJG2H.e5JHPH98U53KA8Q-] found
Submit result: eTFvjceJG2H.e5JHPH98U53KA8Q- has been confirmed, eTFvjceJG2H.e5JHPH98U53KA8Q- has been confirmed
Track | CTDB Status
1 | (75/77) Accurately ripped
2 | (74/77) Accurately ripped
3 | (72/77) Accurately ripped
4 | (72/77) Accurately ripped
5 | (74/77) Accurately ripped
6 | (73/77) Accurately ripped
7 | (73/77) Accurately ripped
8 | (74/77) Accurately ripped
9 | (75/77) Accurately ripped
10 | (75/77) Accurately ripped

==== Log checksum A22A112E5A46804C921B181C12ADC72A1B62C865526E176A4807E51A93B06F06 ====

CUETools 2.1.5
[CUETools log; Date: 31.03.2015 10:58:42; Version: 2.1.4]
Pregap length 00:00:33.
[CTDB TOCID: eTFvjceJG2H.e5JHPH98U53KA8Q-] found.
Track | CTDB Status
1 | (104/106) Accurately ripped
2 | (103/106) Accurately ripped
3 | (100/106) Accurately ripped
4 | (101/106) Accurately ripped
5 | (103/106) Accurately ripped
6 | (102/106) Accurately ripped
7 | (102/106) Accurately ripped
8 | (103/106) Accurately ripped
9 | (104/106) Accurately ripped
10 | (104/106) Accurately ripped
[AccurateRip ID: 000d31df-006a782c-7008840a] found.
Track [ CRC | V2 ] Status
01 [7a776a02|a4259f6a] (200+200/1100) Accurately ripped
02 [a5d1a1e3|e2235f66] (200+200/1110) Accurately ripped
03 [45362817|dd876229] (200+200/1118) Accurately ripped
04 [bd74db3d|99906638] (200+200/1119) Accurately ripped
05 [516ef852|7c07b126] (200+200/1123) Accurately ripped
06 [eec34f1d|b4271ddc] (200+200/1121) Accurately ripped
07 [453d6fdc|28d8c350] (200+200/1123) Accurately ripped
08 [d768c7c0|e49caa08] (200+200/1115) Accurately ripped
09 [b89a59f4|df2d3723] (200+200/1118) Accurately ripped
10 [6c8e2f30|ac6ce218] (200+200/1098) Accurately ripped
Offsetted by -1311:
01 [6915ae68] (003/1100) Accurately ripped
02 [14da953d] (003/1110) Accurately ripped
03 [6a8b396e] (003/1118) Accurately ripped
04 [a9cb8383] (003/1119) Accurately ripped
05 [9b26d4bf] (003/1123) Accurately ripped
06 [cdcd064e] (003/1121) Accurately ripped
07 [c1b8d85e] (003/1123) Accurately ripped
08 [b6dd5913] (003/1115) Accurately ripped
09 [598891eb] (003/1118) Accurately ripped
10 [80104df9] (003/1098) Accurately ripped
Offsetted by -664:
01 [254fdf72] (002/1100) Accurately ripped
02 [cd435273] (003/1110) Accurately ripped
03 [2bfd116f] (003/1118) Accurately ripped
04 [d673a3ad] (003/1119) Accurately ripped
05 [98296e9a] (003/1123) Accurately ripped
06 [70e96d05] (003/1121) Accurately ripped
07 [1aa588ac] (003/1123) Accurately ripped
08 [40626778] (003/1115) Accurately ripped
09 [c7b8344c] (003/1118) Accurately ripped
10 [375d12d8] (003/1098) Accurately ripped
Offsetted by -566:
01 [96e45bfe] (002/1100) Accurately ripped
02 [c2d09d67] (002/1110) Accurately ripped
03 [532e5c7d] (002/1118) Accurately ripped
04 [26cf93f9] (002/1119) Accurately ripped
05 [d56f1194] (002/1123) Accurately ripped
06 [e569f807] (002/1121) Accurately ripped
07 [1e9ea6f0] (002/1123) Accurately ripped
08 [701eb7fe] (002/1115) Accurately ripped
09 [b926b09a] (002/1118) Accurately ripped
10 [0d17fc0a] (002/1098) Accurately ripped
Offsetted by -119:
01 [4bf9f758] (071/1100) Accurately ripped
02 [c4caa24d] (072/1110) Accurately ripped
03 [dec37186] (074/1118) Accurately ripped
04 [a5053773] (075/1119) Accurately ripped
05 [2b9a6947] (074/1123) Accurately ripped
06 [f394ef76] (075/1121) Accurately ripped
07 [898eefae] (076/1123) Accurately ripped
08 [78df8a8b] (073/1115) Accurately ripped
09 [25b8c303] (073/1118) Accurately ripped
10 [fb4fcae1] (070/1098) Accurately ripped
Offsetted by -95:
01 [23dfa2e8] (002/1100) Accurately ripped
02 [88c370bd] (002/1110) Accurately ripped
03 [4ba07eae] (002/1118) Accurately ripped
04 [f764e003] (002/1119) Accurately ripped
05 [3562527f] (002/1123) Accurately ripped
06 [fb37070e] (002/1121) Accurately ripped
07 [edcbf1de] (002/1123) Accurately ripped
08 [40a52b53] (002/1115) Accurately ripped
09 [de3c4f2b] (002/1118) Accurately ripped
10 [ad0aa0b9] (002/1098) Accurately ripped
Offsetted by -48:
01 [caac12e2] (015/1100) Accurately ripped
02 [1de00503] (016/1110) Accurately ripped
03 [6b7c0dc7] (016/1118) Accurately ripped
04 [18b58a1d] (015/1119) Accurately ripped
05 [3ddf25e2] (016/1123) Accurately ripped
06 [df7f1fed] (015/1121) Accurately ripped
07 [7cc36b7c] (015/1123) Accurately ripped
08 [47dd8630] (016/1115) Accurately ripped
09 [479341a4] (015/1118) Accurately ripped
10 [09188380] (015/1098) Accurately ripped
Offsetted by 167:
01 [58c033cc] (030/1100) Accurately ripped
02 [0eca3e59] (029/1110) Accurately ripped
03 [8562f8f8] (029/1118) Accurately ripped
04 [7aa3d027] (030/1119) Accurately ripped
05 [8ad359cd] (031/1123) Accurately ripped
06 [f935ddf4] (031/1121) Accurately ripped
07 [c965f46a] (031/1123) Accurately ripped
08 [c57d4685] (031/1115) Accurately ripped
09 [bc830935] (031/1118) Accurately ripped
10 [41423f2f] (027/1098) Accurately ripped
Offsetted by 651:
01 [5aad37a4] (009/1100) Accurately ripped
02 [298e8181] (009/1110) Accurately ripped
03 [ee222cf4] (009/1118) Accurately ripped
04 [f7d7977f] (009/1119) Accurately ripped
05 [7abd8e61] (009/1123) Accurately ripped
06 [3dd00f18] (009/1121) Accurately ripped
07 [84344b32] (009/1123) Accurately ripped
08 [823970f1] (009/1115) Accurately ripped
09 [458a93b1] (009/1118) Accurately ripped
10 [417a17b3] (008/1098) Accurately ripped
Offsetted by 1334:
01 [5abfea06] (065/1100) Accurately ripped
02 [07ec745f] (066/1110) Accurately ripped
03 [d2df98b1] (067/1118) Accurately ripped
04 [a00f3481] (069/1119) Accurately ripped
05 [066c0610] (069/1123) Accurately ripped
06 [ec5f9933] (069/1121) Accurately ripped
07 [f37c7ec8] (068/1123) Accurately ripped
08 [3766f082] (067/1115) Accurately ripped
09 [c87f884e] (068/1118) Accurately ripped
10 [035f1d56] (067/1098) Accurately ripped
Offsetted by 1349:
01 [e1af7540] (049/1100) Accurately ripped
02 [4267f565] (049/1110) Accurately ripped
03 [b6e9c0ea] (050/1118) Accurately ripped
04 [538afddb] (051/1119) Accurately ripped
05 [ac88f7d3] (052/1123) Accurately ripped
06 [7124e7f2] (051/1121) Accurately ripped
07 [5222a026] (052/1123) Accurately ripped
08 [344274ff] (051/1115) Accurately ripped
09 [3bd1bfe7] (053/1118) Accurately ripped
10 [7273e2fd] (051/1098) Accurately ripped
Offsetted by 1499:
01 [270ae584] (056/1100) Accurately ripped
02 [8b3affa1] (057/1110) Accurately ripped
03 [9f4f5324] (058/1118) Accurately ripped
04 [5660db5f] (056/1119) Accurately ripped
05 [29aa6971] (056/1123) Accurately ripped
06 [a0d9fb68] (055/1121) Accurately ripped
07 [049fedd2] (055/1123) Accurately ripped
08 [14d5a1e1] (055/1115) Accurately ripped
09 [bd07ebe1] (055/1118) Accurately ripped
10 [c9439b83] (054/1098) Accurately ripped
Offsetted by 1670:
01 [294f4be6] (079/1100) Accurately ripped
02 [bf87be7f] (082/1110) Accurately ripped
03 [c6f650e1] (086/1118) Accurately ripped
04 [214a6c61] (083/1119) Accurately ripped
05 [8f5ac720] (083/1123) Accurately ripped
06 [573ce383] (081/1121) Accurately ripped
07 [6ed29d68] (084/1123) Accurately ripped
08 [2435bb72] (083/1115) Accurately ripped
09 [dfb1327e] (081/1118) Accurately ripped
10 [bb96cf26] (081/1098) Accurately ripped
Offsetted by -1176:
01 [27819372] (000/1100) No match (V2 was not tested)
02 [23321e73] (000/1110) No match (V2 was not tested)
03 [6ee6a36f] (000/1118) No match (V2 was not tested)
04 [f92597ad] (000/1119) No match (V2 was not tested)
05 [722b549a] (000/1123) No match (V2 was not tested)
06 [78bccb05] (000/1121) No match (V2 was not tested)
07 [159004ac] (000/1123) No match (V2 was not tested)
08 [9a950178] (000/1115) No match (V2 was not tested)
09 [676c864c] (000/1118) No match (V2 was not tested)
10 [67cb40d8] (000/1098) No match (V2 was not tested)
Offsetted by -849:
01 [a51ad4fc] (002/1100) Accurately ripped
02 [51501b29] (002/1110) Accurately ripped
03 [da2a76b0] (002/1118) Accurately ripped
04 [db7cf057] (002/1119) Accurately ripped
05 [976f1e35] (002/1123) Accurately ripped
06 [60bd4c7c] (002/1121) Accurately ripped
07 [8b4f427a] (002/1123) Accurately ripped
08 [bc79b01d] (002/1115) Accurately ripped
09 [396cdbed] (002/1118) Accurately ripped
10 [dd5ce277] (000/1098) No match (V2 was not tested)
Offsetted by -696:
01 [0572fab2] (000/1100) No match (V2 was not tested)
02 [72a23f33] (000/1110) No match (V2 was not tested)
03 [f02baa8f] (000/1118) No match (V2 was not tested)
04 [689ec2ed] (000/1119) No match (V2 was not tested)
05 [35c98cfa] (000/1123) No match (V2 was not tested)
06 [1166a2e5] (000/1121) No match (V2 was not tested)
07 [ea54306c] (000/1123) No match (V2 was not tested)
08 [36059118] (000/1115) No match (V2 was not tested)
09 [d1b3796c] (000/1118) No match (V2 was not tested)
10 [4a63f5b8] (000/1098) No match (V2 was not tested)
Offsetted by -657:
01 [6448317c] (000/1100) No match (V2 was not tested)
02 [71168ea9] (000/1110) No match (V2 was not tested)
03 [4112dff0] (000/1118) No match (V2 was not tested)
04 [6e7a34d7] (000/1119) No match (V2 was not tested)
05 [e5ae67f5] (000/1123) No match (V2 was not tested)
06 [9dce093c] (000/1121) No match (V2 was not tested)
07 [ad3753fa] (000/1123) No match (V2 was not tested)
08 [faa6b65d] (000/1115) No match (V2 was not tested)
09 [fd893d2d] (000/1118) No match (V2 was not tested)
10 [6b339137] (000/1098) No match (V2 was not tested)
Offsetted by 6:
01 [b070d4e6] (000/1100) No match
02 [56cfd57f] (000/1110) No match
03 [a06d6b61] (000/1118) No match
04 [d20cc561] (000/1119) No match
05 [93e0f2a0] (000/1123) No match
06 [f0abd503] (002/1121) Accurately ripped
07 [9e4cb068] (002/1123) Accurately ripped
08 [095a2ff2] (002/1115) Accurately ripped
09 [e6bb3cfe] (002/1118) Accurately ripped
10 [98fce4a6] (002/1098) Accurately ripped

Track Peak [ CRC32 ] [W/O NULL] [ LOG ]
— 98,6 [2EC88BEE] [386B40E0] CRC32
01 89,0 [BBBB23FC] [0F8A1132]
02 89,1 [AECE7DC7] [84E1D1C2]
03 98,6 [430A3DB6] [39F9CC7E]
04 97,5 [7F41CD46] [5DE8AFD7]
05 94,3 [876A9CBB] [F37830A8]
06 97,1 [69DA88DB] [D9142E29]
07 93,0 [8748B8F6] [67D55A58]
08 89,7 [2724438D] [43AB8C57]
09 97,8 [DFD848E7] [02ABBA62]
10 80,2 [01DEE59B] [ACA8E864]

Back & CD label

imagebam.com imagebam.com

Download From
 
LMA__TW.VOL1.1988.rar
 
Password: www.LosslessMA.net
  
If you encounter broken links or other problem about this publication, please let me know
and write your comment below. I will reply and fix as soon as possible.