Various Artists – Synth Pop (2015)

Various Artists - Synth Pop (2015)

Various Artists – Synth Pop (2015)
EAC Rip | 3xCD | FLAC Image + Cue + Log | Full Scans @300 dpi, PNG
Size: 1.38 GB (CDs) + 134 MB (Scans) | 3% RAR Recovery
Label: Sony Music | Cat#: 88875075362 | Genre: Synth-Pop

2015 three CD collection. Stemming from the late 1970’s and giving birth to the New Romantic movement, the synthesizer was THE sound of the era, and continues to influence the sound of bands today. This collection includes 13 massive #1 hit singles as well as genre defining chart smashes from the likes of Eurythmics, Ultravox, Yazoo, New Order and Bronski Beat and the many more that helped create a new sound and identity to an entire decade and beyond. From 1977’s ‘I Feel Love’ by Donna Summer to the track that arguably kicked off the synth pop era in June 1979, Tubeway Army’s ‘Are ‘Friends’ Electric?’, this collection features over 50 tracks (46 of which were top ten hits) that place the electric keyboard at the heart of the British music history. From the Paul Hardcastle’s #1 hit ’19’, right the way to New Order’s ‘Blue Monday’, The Human League’s ‘Don’t You Want Me Baby’ and Visage’s classic ‘Fade To Grey’, this album celebrates the impact that the invention of the Moog and other affordable keyboards had on the music of the late 70s, the 80s… and continues to influence the charts today.

Additional Info:
• Released Date: April 28, 2015

Disc 1:
01. Eurythmics – Sweet Dreams (Are Made Of This) – 03:38
02. The Human League – Don’t You Want Me – 03:58
03. Gary Numan – Cars – 03:54
04. Soft Cell – Tainted Love – 02:38
05. Donna Summer – I Feel Love – 03:11
06. Frankie Goes To Hollywood – Relax – 03:57
07. Paul Hardcastle – 19 – 03:32
08. Duran Duran – The Reflex (7” Version) – 04:25
09. The Communards – Don’t Leave Me This Way – 04:32
10. Spandau Ballet – Gold – 03:51
11. Falco – Rock Me Amadeus – 03:19
12. Yazoo – Only You – 03:11
13. Ultravox – Vienna – 04:38
14. Visage – Fade To Grey – 05:40
15. Orchestral Manoeuvres In The Dark – Enola Gay – 03:30
16. M – Pop Muzik – 03:18
17. The Flying Lizards – Money – 02:32
18. Harold Faltermeyer – Axel F – 03:01

Disc 2
01. New Order – Blue Monday – 07:29
02. Tubeway Army – Are ‘Friends’ Electric? – 05:22
03. Heaven 17 – Temptation – 03:25
04. Philip Oakey & Giorgio Moroder – Together In Electric Dreams – 03:49
05. Bronski Beat – Smalltown Boy – 04:57
06. Fiction Factory – (Feels Like) Heaven – 03:31
07. Erasure – A Little Respect – 03:30
08. Kajagoogoo – Too Shy – 03:43
09. A-Ha – Take On Me – 03:47
10. Kim Wilde – Kids In America – 03:25
11. King – Love & Pride – 03:21
12. Haircut 100 – Love Plus One – 03:33
13. Japan – Quiet Life – 04:51
14. Howard Jones – What Is Love? – 03:36
15. Midge Ure – If I Was – 04:39
16. Thompson Twins – Hold Me Now – 04:44
17. Talk Talk – It’s My Life – 03:53
18. Roxy Music – More Than This – 04:30

Disc 3
01. Tears For Fears – Everybody Wants To Rule The World – 04:13
02. Aztec Camera – Somewhere In My Heart – 03:58
03. Alison Moyet – Love Resurrection – 03:50
04. Prefab Sprout – The King Of Rock ‘N’ Roll – 04:23
05. Imagination – Body Talk – 04:44
06. Landscape – Einstein A Go-Go – 03:27
07. Alphaville – Big In Japan – 03:49
08. Altered Images – Don’t Talk To Me About Love – 03:48
09. Blancmange – Living On The Ceiling – 04:01
10. Herbie Hancock – Rockit – 03:55
11. Thomas Dolby – She Blinded Me With Science – 03:41
12. Classix Nouveaux – Is It A Dream? – 03:38
13. Belouis Some – Imagination – 03:34
14. A Flock Of Seagulls – I Ran (So Far Away) – 05:08
15. Devo – Whip It – 02:39
16. Yello – Oh Yeah – 03:06
17. Art Of Noise – Moments In Love – 04:36

[su_accordion]
[su_spoiler title=”EAC Logs” icon=”plus-square-1″ style=”fancy”]
[su_spoiler title=”EAC Log Disc 1″ icon=”plus-square-1″ style=”fancy”]
Exact Audio Copy V1.0 beta 6 from 9. April 2015

EAC extraction logfile from 29. April 2015, 20:15

Various Artists / Synth Pop CD1

Used drive : PLEXTOR BD-R PX-B950SA Adapter: 1 ID: 1

Read mode : Secure
Utilize accurate stream : Yes
Defeat audio cache : Yes
Make use of C2 pointers : No

Read offset correction : 6
Overread into Lead-In and Lead-Out : No
Fill up missing offset samples with silence : Yes
Delete leading and trailing silent blocks : No
Null samples used in CRC calculations : Yes
Used interface : Native Win32 interface for Win NT & 2000

Used output format : Internal WAV Routines
Sample format : 44.100 Hz; 16 Bit; Stereo

TOC of the extracted CD

Track | Start | Length | Start sector | End sector
———————————————————
1 | 0:00.00 | 3:38.22 | 0 | 16371
2 | 3:38.22 | 3:58.18 | 16372 | 34239
3 | 7:36.40 | 3:54.37 | 34240 | 51826
4 | 11:31.02 | 2:38.28 | 51827 | 63704
5 | 14:09.30 | 3:11.04 | 63705 | 78033
6 | 17:20.34 | 3:57.16 | 78034 | 95824
7 | 21:17.50 | 3:32.26 | 95825 | 111750
8 | 24:50.01 | 4:25.34 | 111751 | 131659
9 | 29:15.35 | 4:32.51 | 131660 | 152110
10 | 33:48.11 | 3:51.34 | 152111 | 169469
11 | 37:39.45 | 3:19.63 | 169470 | 184457
12 | 40:59.33 | 3:11.05 | 184458 | 198787
13 | 44:10.38 | 4:38.61 | 198788 | 219698
14 | 48:49.24 | 5:40.53 | 219699 | 245251
15 | 54:30.02 | 3:30.70 | 245252 | 261071
16 | 58:00.72 | 3:18.48 | 261072 | 275969
17 | 61:19.45 | 2:32.20 | 275970 | 287389
18 | 63:51.65 | 3:01.03 | 287390 | 300967

Range status and errors

Selected range

Filename C:\Users\2015 Synth Pop (3CD Set Sony Music)\CD1\Various Artists – Synth Pop CD1.wav

Peak level 97.7 %
Extraction speed 8.1 X
Range quality 99.9 %
Test CRC E67A55A0
Copy CRC E67A55A0
Copy OK

No errors occurred

AccurateRip summary

Track 1 not present in database
Track 2 not present in database
Track 3 not present in database
Track 4 not present in database
Track 5 not present in database
Track 6 not present in database
Track 7 not present in database
Track 8 not present in database
Track 9 not present in database
Track 10 not present in database
Track 11 not present in database
Track 12 not present in database
Track 13 not present in database
Track 14 not present in database
Track 15 not present in database
Track 16 not present in database
Track 17 not present in database
Track 18 not present in database

None of the tracks are present in the AccurateRip database

End of status report

—- CUETools DB Plugin V2.1.6

[CTDB TOCID: toHzVnCk6vM2zVEXhOst3EtV98o-] disk not present in database
Submit result: toHzVnCk6vM2zVEXhOst3EtV98o- has been uploaded

==== Log checksum FDF82774F597AE7BB60C3B1F4830D05C592FCAB48F485E1E7E250D042868B2D7 ====
[_/su_spoiler]
[su_spoiler title=”EAC Log Disc 2″ icon=”plus-square-1″ style=”fancy”]
Exact Audio Copy V1.0 beta 6 from 9. April 2015

EAC extraction logfile from 29. April 2015, 19:36

Various Artists / Synth Pop CD2

Used drive : PLEXTOR BD-R PX-B950SA Adapter: 1 ID: 1

Read mode : Secure
Utilize accurate stream : Yes
Defeat audio cache : Yes
Make use of C2 pointers : No

Read offset correction : 6
Overread into Lead-In and Lead-Out : No
Fill up missing offset samples with silence : Yes
Delete leading and trailing silent blocks : No
Null samples used in CRC calculations : Yes
Used interface : Native Win32 interface for Win NT & 2000

Used output format : Internal WAV Routines
Sample format : 44.100 Hz; 16 Bit; Stereo

TOC of the extracted CD

Track | Start | Length | Start sector | End sector
———————————————————
1 | 0:00.00 | 7:29.45 | 0 | 33719
2 | 7:29.45 | 5:22.43 | 33720 | 57912
3 | 12:52.13 | 3:25.39 | 57913 | 73326
4 | 16:17.52 | 3:49.56 | 73327 | 90557
5 | 20:07.33 | 4:57.30 | 90558 | 112862
6 | 25:04.63 | 3:31.50 | 112863 | 128737
7 | 28:36.38 | 3:30.68 | 128738 | 144555
8 | 32:07.31 | 3:43.05 | 144556 | 161285
9 | 35:50.36 | 3:47.61 | 161286 | 178371
10 | 39:38.22 | 3:25.14 | 178372 | 193760
11 | 43:03.36 | 3:21.38 | 193761 | 208873
12 | 46:24.74 | 3:33.05 | 208874 | 224853
13 | 49:58.04 | 4:51.53 | 224854 | 246731
14 | 54:49.57 | 3:36.44 | 246732 | 262975
15 | 58:26.26 | 4:39.09 | 262976 | 283909
16 | 63:05.35 | 4:44.18 | 283910 | 305227
17 | 67:49.53 | 3:53.62 | 305228 | 322764
18 | 71:43.40 | 4:30.72 | 322765 | 343086

Range status and errors

Selected range

Filename C:\Users\2015 Synth Pop (3CD Set Sony Music)\CD2\Various Artists – Synth Pop CD2.wav

Peak level 97.7 %
Extraction speed 8.4 X
Range quality 100.0 %
Test CRC 2DD48AED
Copy CRC 2DD48AED
Copy OK

No errors occurred

AccurateRip summary

Track 1 not present in database
Track 2 not present in database
Track 3 not present in database
Track 4 not present in database
Track 5 not present in database
Track 6 not present in database
Track 7 not present in database
Track 8 not present in database
Track 9 not present in database
Track 10 not present in database
Track 11 not present in database
Track 12 not present in database
Track 13 not present in database
Track 14 not present in database
Track 15 not present in database
Track 16 not present in database
Track 17 not present in database
Track 18 not present in database

None of the tracks are present in the AccurateRip database

End of status report

—- CUETools DB Plugin V2.1.6

[CTDB TOCID: VsZDRfA9UnNtIoJcwgvy86in87o-] disk not present in database
Submit result: VsZDRfA9UnNtIoJcwgvy86in87o- has been uploaded

==== Log checksum 76B7F8FAE03FB2FEC623BC0F2DAD0E85C61C3F8BDB200EEBAA83E092310FE754 ====
[_/su_spoiler]
[su_spoiler title=”EAC Log Disc 3″ icon=”plus-square-1″ style=”fancy”]
Exact Audio Copy V1.0 beta 6 from 9. April 2015

EAC extraction logfile from 29. April 2015, 19:02

Various Artists / Synth Pop CD3

Used drive : PLEXTOR BD-R PX-B950SA Adapter: 1 ID: 1

Read mode : Secure
Utilize accurate stream : Yes
Defeat audio cache : Yes
Make use of C2 pointers : No

Read offset correction : 6
Overread into Lead-In and Lead-Out : No
Fill up missing offset samples with silence : Yes
Delete leading and trailing silent blocks : No
Null samples used in CRC calculations : Yes
Used interface : Native Win32 interface for Win NT & 2000

Used output format : Internal WAV Routines
Sample format : 44.100 Hz; 16 Bit; Stereo

TOC of the extracted CD

Track | Start | Length | Start sector | End sector
———————————————————
1 | 0:00.00 | 4:13.49 | 0 | 19023
2 | 4:13.49 | 3:58.53 | 19024 | 36926
3 | 8:12.27 | 3:50.32 | 36927 | 54208
4 | 12:02.59 | 4:23.71 | 54209 | 74004
5 | 16:26.55 | 4:44.16 | 74005 | 95320
6 | 21:10.71 | 3:27.72 | 95321 | 110917
7 | 24:38.68 | 3:49.39 | 110918 | 128131
8 | 28:28.32 | 3:48.29 | 128132 | 145260
9 | 32:16.61 | 4:01.47 | 145261 | 163382
10 | 36:18.33 | 3:55.66 | 163383 | 181073
11 | 40:14.24 | 3:41.66 | 181074 | 197714
12 | 43:56.15 | 3:38.35 | 197715 | 214099
13 | 47:34.50 | 3:34.59 | 214100 | 230208
14 | 51:09.34 | 5:08.55 | 230209 | 253363
15 | 56:18.14 | 2:39.70 | 253364 | 265358
16 | 58:58.09 | 3:06.40 | 265359 | 279348
17 | 62:04.49 | 4:36.35 | 279349 | 300083

Range status and errors

Selected range

Filename C:\Users\2015 Synth Pop (3CD Set Sony Music)\CD3\Various Artists – Synth Pop CD3.wav

Peak level 98.0 %
Extraction speed 8.1 X
Range quality 100.0 %
Test CRC 1BE24459
Copy CRC 1BE24459
Copy OK

No errors occurred

AccurateRip summary

Track 1 not present in database
Track 2 not present in database
Track 3 not present in database
Track 4 not present in database
Track 5 not present in database
Track 6 not present in database
Track 7 not present in database
Track 8 not present in database
Track 9 not present in database
Track 10 not present in database
Track 11 not present in database
Track 12 not present in database
Track 13 not present in database
Track 14 not present in database
Track 15 not present in database
Track 16 not present in database
Track 17 not present in database

None of the tracks are present in the AccurateRip database

End of status report

—- CUETools DB Plugin V2.1.6

[CTDB TOCID: G1Ic7L7omn8BBoA7Zy0xpfytdqk-] disk not present in database
Submit result: G1Ic7L7omn8BBoA7Zy0xpfytdqk- has been uploaded

==== Log checksum 897285C291761542743FD541C4C23C7FBA0A997F4AE3242DD1E03D39D5CAB535 ====
[_/su_spoiler]
[/su_spoiler]
[su_spoiler title=”CUETools 2.1.5 Logs” icon=”plus-square-1″ style=”fancy”]
[su_spoiler title=”CUETools 2.1.5 Disc 1″ icon=”plus-square-1″ style=”fancy”]
[CUETools log; Date: 5/4/2015 11:56:05 PM; Version: 2.1.5]
[CTDB TOCID: toHzVnCk6vM2zVEXhOst3EtV98o-] found.
Track | CTDB Status
1 | (1/1) Accurately ripped
2 | (1/1) Accurately ripped
3 | (1/1) Accurately ripped
4 | (1/1) Accurately ripped
5 | (1/1) Accurately ripped
6 | (1/1) Accurately ripped
7 | (1/1) Accurately ripped
8 | (1/1) Accurately ripped
9 | (1/1) Accurately ripped
10 | (1/1) Accurately ripped
11 | (1/1) Accurately ripped
12 | (1/1) Accurately ripped
13 | (1/1) Accurately ripped
14 | (1/1) Accurately ripped
15 | (1/1) Accurately ripped
16 | (1/1) Accurately ripped
17 | (1/1) Accurately ripped
18 | (1/1) Accurately ripped
[AccurateRip ID: 002bec80-024ca2e1-f20fac12] disk not present in database.

Track Peak [ CRC32 ] [W/O NULL] [ LOG ]
— 97.7 [E67A55A0] [9E26F7E0] CRC32
01 97.7 [8E58AD5A] [39794BC1]
02 85.6 [AC0ABE11] [8AE0FC50]
03 97.7 [694F2BCC] [C863CF4A]
04 79.6 [B67A5699] [64068BC5]
05 89.1 [72F90B7D] [B17F4C96]
06 93.4 [94FFE230] [1E3308D6]
07 87.1 [3EBDCE08] [D13A0D9D]
08 92.2 [C8A8558D] [F2FC3607]
09 81.2 [DE56502E] [D2F00E82]
10 89.6 [98228C99] [B0ABA233]
11 71.6 [35D4D08F] [A2688C03]
12 87.2 [E4E5825D] [1E2F1E2C]
13 97.7 [86003913] [E2D8A9C2]
14 96.8 [BF6A014E] [38D7719E]
15 71.6 [4A6AC171] [D8E67AF7]
16 72.4 [7BB7F15C] [94F9677F]
17 97.7 [F8B938CF] [D7ECDF7F]
18 89.1 [3A8CAEDB] [936CCAAA]
[_/su_spoiler]
[su_spoiler title=”CUETools 2.1.5 Disc 2″ icon=”plus-square-1″ style=”fancy”]
[CUETools log; Date: 5/4/2015 11:56:25 PM; Version: 2.1.5]
[CTDB TOCID: VsZDRfA9UnNtIoJcwgvy86in87o-] found.
Track | CTDB Status
1 | (1/1) Accurately ripped
2 | (1/1) Accurately ripped
3 | (1/1) Accurately ripped
4 | (1/1) Accurately ripped
5 | (1/1) Accurately ripped
6 | (1/1) Accurately ripped
7 | (1/1) Accurately ripped
8 | (1/1) Accurately ripped
9 | (1/1) Accurately ripped
10 | (1/1) Accurately ripped
11 | (1/1) Accurately ripped
12 | (1/1) Accurately ripped
13 | (1/1) Accurately ripped
14 | (1/1) Accurately ripped
15 | (1/1) Accurately ripped
16 | (1/1) Accurately ripped
17 | (1/1) Accurately ripped
18 | (1/1) Accurately ripped
[AccurateRip ID: 003379d0-029f0970-0b11de12] disk not present in database.

Track Peak [ CRC32 ] [W/O NULL] [ LOG ]
— 97.7 [2DD48AED] [D8C68873] CRC32
01 77.0 [C9EADC1A] [0B273875]
02 91.2 [54BA7238] [4DC3F438]
03 81.2 [748E3ACD] [AB333E50]
04 86.1 [B1351EB9] [BB5C94AE]
05 88.9 [3669FD92] [17E58D24]
06 70.7 [0E135EC7] [D4CB35D2]
07 97.7 [CCF340CC] [C8C4C2DD]
08 97.7 [E8F15FB1] [6FB0793E]
09 97.7 [07BB0333] [61F14674]
10 71.1 [50BF5178] [082AA04C]
11 97.7 [8E0B59D8] [54EAA88A]
12 97.7 [72F557AA] [A33B1228]
13 97.7 [C6740036] [145DB503]
14 97.7 [D0DA931B] [4FDFFD90]
15 88.1 [109BA083] [36D8A168]
16 83.2 [25473EB2] [7899EA05]
17 97.1 [70A2DE82] [F2E834E8]
18 97.7 [D3E8A1C0] [787B4D5C]
[_/su_spoiler]
[su_spoiler title=”CUETools 2.1.5 Disc 3″ icon=”plus-square-1″ style=”fancy”]
[CUETools log; Date: 5/4/2015 11:56:55 PM; Version: 2.1.5]
[CTDB TOCID: G1Ic7L7omn8BBoA7Zy0xpfytdqk-] found.
Track | CTDB Status
1 | (1/1) Accurately ripped
2 | (1/1) Accurately ripped
3 | (1/1) Accurately ripped
4 | (1/1) Accurately ripped
5 | (1/1) Accurately ripped
6 | (1/1) Accurately ripped
7 | (1/1) Accurately ripped
8 | (1/1) Accurately ripped
9 | (1/1) Accurately ripped
10 | (1/1) Accurately ripped
11 | (1/1) Accurately ripped
12 | (1/1) Accurately ripped
13 | (1/1) Accurately ripped
14 | (1/1) Accurately ripped
15 | (1/1) Accurately ripped
16 | (1/1) Accurately ripped
17 | (1/1) Accurately ripped
[AccurateRip ID: 0029f012-021038cb-f30fa111] disk not present in database.

Track Peak [ CRC32 ] [W/O NULL] [ LOG ]
— 98.0 [1BE24459] [36543F16] CRC32
01 97.7 [F558CE48] [7221A502]
02 97.7 [76EC82EA] [54A072EF]
03 73.2 [C76CFD34] [4593CA46]
04 98.0 [8DC1EED6] [25C1D6D3]
05 84.1 [7F3E0DA5] [C6840653]
06 97.7 [AFADCD8B] [B35FCDE0]
07 96.8 [0D8F6EEA] [FBE50A7D]
08 94.3 [A8369A0B] [615D17D5]
09 88.1 [32CDDEFA] [D10B05C6]
10 93.3 [BB424226] [8EECBB62]
11 97.7 [866BBA28] [C2B97CDC]
12 97.7 [71CABEC2] [AD03E0AA]
13 97.7 [1C741E03] [F691D1EC]
14 97.7 [BEFCD925] [70414D43]
15 97.7 [17FB3106] [ECACB3A1]
16 97.7 [2380C4D7] [CC2691CF]
17 74.1 [DA47594A] [3FE2F2E7]
[_/su_spoiler]
[/su_spoiler]
[su_spoiler title=”Back & CD labels” icon=”plus-square-1″ style=”fancy”]

[/su_spoiler]
[/su_accordion]

DOWNLOAD FROM
 
LMA_VA.2015.SP_CD1.rar
LMA_VA.2015.SP_CD2.rar
LMA_VA.2015.SP_CD3.rar
LMA_VA.2015.SP_Scans.rar
 
Password: www.LosslessMA.net
 
If you encounter broken links or other problem about this publication, please let me know
and write your comment below. I will reply and fix as soon as possible.