Neil Diamond – Melody Road (2014) {Deluxe Edition}

Neil Diamond - Melody Road (2014) {Deluxe Edition}

Neil Diamond – Melody Road (2014) {Deluxe Edition}
EAC Rip | FLAC Tracks + Cue + Log | Full Scans @300 dpi, JPG
FLAC: 337 MB | Scans: 152 MB | 3% RAR Recovery
Label: Capitol Records | Cat#: B002184202 | Genre: Pop

Melody Road is Neil Diamond’s debut album as an artist signed to Capitol Records. His 32nd studio album, it is the first album of original music Diamond has recorded since 2008’s well-received Home Before Dark, which debuted on the US album charts at #1. It was produced by Don Was and Jacknife Lee.

After 40 years recording for Columbia, Diamond signed with Capitol in early 2014. At the same time, his back catalogue was moved to Universal Music Group, Capitol’s parent company. Capitol released Diamond’s 1980 soundtrack album for The Jazz Singer.

On September 8, 2014, six of the tracks from Melody Road were premiered at the Capitol Records studios in Hollywood, CA at a listening party for a small group of music industry executives and journalists. Following the event, Billboard wrote that the album is “rich in orchestration that retains the dark rustic qualities of his last two studio albums of original material, 12 Songs and Home Before Dark. Of the songs, the article stated that “‘Something Blue’, the most commercial of the songs played Monday, has the classic Diamond mid-tempo lilt; the ballads ‘The Art of Love’ and ‘(Ooo) Do I Wanna Be Yours’ offer springboards for Diamond’s still-potent voice; and ‘Seongah and Jimmy’ is an eyewitness account of a romance between a woman from Korea and a man from Long Island.” The Wall Street Journal wrote that “The Art of Love” is a “tender offering from Diamond, who at age 73, hasn’t lost that ability to convey a wide swath of emotions in just four minutes.”

Additional Info:
• Recorded Date: 2014
• Released Date: October 21, 2014
• Producer: Jacknife Lee, Don Was
• More Information: Here

Tracklist:
01. Melody Road – 03:13
02. First Time – 04:02
03. Seongah and Jimmy – 05:45
04. Something Blue – 04:03
05. Nothing But a Heartache – 04:34
06. In Better Days – 03:31
07. (OOO) Do I Wanna Be Yours – 06:14
08. Alone At the Ball – 02:57
09. Sunny Disposition – 03:14
10. Marry Me Now – 03:35
11. The Art of Love – 04:07
12. Melody Road (Reprise) – 01:13
13. Remember [Bonus track] – 03:32
14. Something [Bonus track] – 04:11

EAC Log
Exact Audio Copy V1.0 beta 3 from 29. August 2011

EAC extraction logfile from 7. December 2014, 22:57

Neil Diamond / Melody Road (Deluxe)

Used drive : PLEXTOR CD-R PX-230A Adapter: 1 ID: 0

Read mode : Secure
Utilize accurate stream : Yes
Defeat audio cache : Yes
Make use of C2 pointers : No

Read offset correction : 738
Overread into Lead-In and Lead-Out : No
Fill up missing offset samples with silence : Yes
Delete leading and trailing silent blocks : No
Null samples used in CRC calculations : Yes
Used interface : Native Win32 interface for Win NT & 2000
Gap handling : Appended to previous track

Used output format : User Defined Encoder
Selected bitrate : 896 kBit/s
Quality : High
Add ID3 tag : No
Command line compressor : C:\Program Files\Exact Audio Copy\FLAC\FLAC.EXE
Additional command line options : -6 -V -T “ARTIST=%artist%” -T “TITLE=%title%” -T “ALBUM=%albumtitle%” -T “DATE=%year%” -T “TRACKNUMBER=%tracknr%” -T “GENRE=%genre%” -T “COMMENT=%comment%” -T “ALBUMARTIST=%albuminterpret%” -T “COMPOSER=%composer%” -T “DISCNUMBER=%cdnumber%” -T “TOTALDISCS=%totalcds%” -T “TOTALTRACKS=%numtracks%” %source% -o %dest%

TOC of the extracted CD

Track | Start | Length | Start sector | End sector
———————————————————
1 | 0:00.00 | 3:12.68 | 0 | 14467
2 | 3:12.68 | 4:02.13 | 14468 | 32630
3 | 7:15.06 | 5:44.59 | 32631 | 58489
4 | 12:59.65 | 4:03.11 | 58490 | 76725
5 | 17:03.01 | 4:33.62 | 76726 | 97262
6 | 21:36.63 | 3:30.56 | 97263 | 113068
7 | 25:07.44 | 6:14.13 | 113069 | 141131
8 | 31:21.57 | 2:56.54 | 141132 | 154385
9 | 34:18.36 | 3:14.04 | 154386 | 168939
10 | 37:32.40 | 3:35.02 | 168940 | 185066
11 | 41:07.42 | 4:07.26 | 185067 | 203617
12 | 45:14.68 | 1:12.57 | 203618 | 209074
13 | 46:27.50 | 3:31.43 | 209075 | 224942
14 | 49:59.18 | 4:10.58 | 224943 | 243750

Track 1

Filename C:\Music\01 – Neil Diamond – Melody Road.wav

Pre-gap length 0:00:02.00

Peak level 98.2 %
Extraction speed 4.6 X
Track quality 99.9 %
Test CRC 91E80904
Copy CRC 91E80904
Cannot be verified as accurate (confidence 4) [186B0774], AccurateRip returned [EED839E4] (AR v2)
Copy OK

Track 2

Filename C:\Music\02 – Neil Diamond – First Time.wav

Peak level 100.0 %
Extraction speed 5.9 X
Track quality 100.0 %
Test CRC 9C429F5F
Copy CRC 9C429F5F
Cannot be verified as accurate (confidence 4) [C6592B45], AccurateRip returned [62210C28] (AR v2)
Copy OK

Track 3

Filename C:\Music\03 – Neil Diamond – Seongah and Jimmy.wav

Peak level 100.0 %
Extraction speed 6.6 X
Track quality 100.0 %
Test CRC 3253CFA3
Copy CRC 3253CFA3
Cannot be verified as accurate (confidence 4) [59FAB08B], AccurateRip returned [CE681C10] (AR v2)
Copy OK

Track 4

Filename C:\Music\04 – Neil Diamond – Something Blue.wav

Peak level 99.8 %
Extraction speed 7.0 X
Track quality 100.0 %
Test CRC 1891F834
Copy CRC 1891F834
Cannot be verified as accurate (confidence 4) [D8C232CF], AccurateRip returned [96751DB4] (AR v2)
Copy OK

Track 5

Filename C:\Music\05 – Neil Diamond – Nothing But a Heartache.wav

Peak level 98.9 %
Extraction speed 7.5 X
Track quality 100.0 %
Test CRC CA842D1E
Copy CRC CA842D1E
Cannot be verified as accurate (confidence 4) [722960E8], AccurateRip returned [42961C19] (AR v2)
Copy OK

Track 6

Filename C:\Music\06 – Neil Diamond – In Better Days.wav

Peak level 99.2 %
Extraction speed 7.5 X
Track quality 100.0 %
Test CRC 187D8A18
Copy CRC 187D8A18
Cannot be verified as accurate (confidence 4) [F6806DF0], AccurateRip returned [04AD6BE1] (AR v2)
Copy OK

Track 7

Filename C:\Music\07 – Neil Diamond – (OOO) Do I Wanna Be Yours.wav

Peak level 100.0 %
Extraction speed 7.7 X
Track quality 99.9 %
Test CRC F49B0505
Copy CRC F49B0505
Cannot be verified as accurate (confidence 4) [FAD746B2], AccurateRip returned [006891F4] (AR v2)
Copy OK

Track 8

Filename C:\Music\08 – Neil Diamond – Alone At the Ball.wav

Peak level 100.0 %
Extraction speed 8.0 X
Track quality 100.0 %
Test CRC 3AEAD4BC
Copy CRC 3AEAD4BC
Cannot be verified as accurate (confidence 4) [87BD94C5], AccurateRip returned [BBD6F2F2] (AR v2)
Copy OK

Track 9

Filename C:\Music\09 – Neil Diamond – Sunny Disposition.wav

Peak level 98.3 %
Extraction speed 8.2 X
Track quality 100.0 %
Test CRC 0E7FF93F
Copy CRC 0E7FF93F
Cannot be verified as accurate (confidence 4) [675DFBFA], AccurateRip returned [FF84CCB8] (AR v2)
Copy OK

Track 10

Filename C:\Music\10 – Neil Diamond – Marry Me Now.wav

Peak level 100.0 %
Extraction speed 7.2 X
Track quality 100.0 %
Test CRC 051EA6D5
Copy CRC 051EA6D5
Cannot be verified as accurate (confidence 4) [66FCE38B], AccurateRip returned [B2DCD622] (AR v2)
Copy OK

Track 11

Filename C:\Music\11 – Neil Diamond – The Art of Love.wav

Peak level 98.1 %
Extraction speed 8.2 X
Track quality 99.9 %
Test CRC 0B3652E3
Copy CRC 0B3652E3
Cannot be verified as accurate (confidence 4) [134A3A01], AccurateRip returned [D8952837] (AR v2)
Copy OK

Track 12

Filename C:\Music\12 – Neil Diamond – Melody Road (Reprise).wav

Peak level 97.9 %
Extraction speed 7.6 X
Track quality 100.0 %
Test CRC B67CA0A0
Copy CRC B67CA0A0
Cannot be verified as accurate (confidence 4) [B64FD12A], AccurateRip returned [EEE85DE3] (AR v2)
Copy OK

Track 13

Filename C:\Music\13 – Neil Diamond – Remember [Bonus track].wav

Pre-gap length 0:00:01.73

Peak level 97.9 %
Extraction speed 9.0 X
Track quality 100.0 %
Test CRC 9E42868E
Copy CRC 9E42868E
Cannot be verified as accurate (confidence 4) [3302948F], AccurateRip returned [DF8721CF] (AR v2)
Copy OK

Track 14

Filename C:\Music\14 – Neil Diamond – Something [Bonus track].wav

Peak level 98.1 %
Extraction speed 7.8 X
Track quality 100.0 %
Test CRC 403EA56D
Copy CRC 403EA56D
Cannot be verified as accurate (confidence 4) [9564F24A], AccurateRip returned [77ED82B6] (AR v2)
Copy OK

No tracks could be verified as accurate
You may have a different pressing from the one(s) in the database

No errors occurred

End of status report

==== Log checksum 229E3B70A7D17403B1DAC980E63199A52A29F1E42362F7D29A409F118050A83B ====

CUETools 2.1.5
[CUETools log; Date: 3/25/2015 7:58:35 PM; Version: 2.1.5]
[CTDB TOCID: MYt.sNOcTG4K4PAna_aIzPQEQkE-] found.
Track | CTDB Status
1 | (17/18) Accurately ripped
2 | (17/18) Accurately ripped
3 | (17/18) Accurately ripped
4 | (17/18) Accurately ripped
5 | (17/18) Accurately ripped
6 | (17/18) Accurately ripped
7 | (17/18) Accurately ripped
8 | (17/18) Accurately ripped
9 | (17/18) Accurately ripped
10 | (16/18) Accurately ripped
11 | (17/18) Accurately ripped
12 | (18/18) Accurately ripped
13 | (17/18) Accurately ripped
14 | (18/18) Accurately ripped
[AccurateRip ID: 001d59e7-01363616-c50cb20e] found.
Track [ CRC | V2 ] Status
01 [33014c42|186b0774] (00+02/22) Accurately ripped
02 [ae2d2a3b|c6592b45] (00+02/22) Accurately ripped
03 [9a371200|59fab08b] (00+02/22) Accurately ripped
04 [f2a9cf48|d8c232cf] (00+02/22) Accurately ripped
05 [e3d33e10|722960e8] (00+02/22) Accurately ripped
06 [7a1827aa|f6806df0] (00+02/22) Accurately ripped
07 [8e720751|fad746b2] (00+02/22) Accurately ripped
08 [6c918fa7|87bd94c5] (00+02/22) Accurately ripped
09 [bb3412e6|675dfbfa] (00+02/22) Accurately ripped
10 [8d334c63|66fce38b] (00+02/22) Accurately ripped
11 [4b6faabb|134a3a01] (00+02/22) Accurately ripped
12 [71edec20|b64fd12a] (00+02/22) Accurately ripped
13 [34701048|3302948f] (00+02/22) Accurately ripped
14 [cc581ee2|9564f24a] (00+02/22) Accurately ripped
Offsetted by 6:
01 [097430e7] (02/22) Accurately ripped
02 [49f98168] (02/22) Accurately ripped
03 [107b8f50] (02/22) Accurately ripped
04 [b1077119] (02/22) Accurately ripped
05 [b449c67d] (02/22) Accurately ripped
06 [88da2aec] (02/22) Accurately ripped
07 [93fcaac8] (02/22) Accurately ripped
08 [a0a3b017] (02/22) Accurately ripped
09 [53625948] (02/22) Accurately ripped
10 [d9a9103e] (02/22) Accurately ripped
11 [1165f83a] (02/22) Accurately ripped
12 [ab174661] (02/22) Accurately ripped
13 [e17e5320] (02/22) Accurately ripped
14 [b0cfe9c6] (02/22) Accurately ripped
Offsetted by -640:
01 [23663d15] (00/22) No match (V2 was not tested)
02 [7e3a381d] (00/22) No match (V2 was not tested)
03 [b85368f4] (00/22) No match (V2 was not tested)
04 [93633325] (00/22) No match (V2 was not tested)
05 [5ea7e56e] (00/22) No match (V2 was not tested)
06 [2d1cefcb] (00/22) No match (V2 was not tested)
07 [7bafd933] (00/22) No match (V2 was not tested)
08 [2370d739] (00/22) No match (V2 was not tested)
09 [e1ab2ad6] (00/22) No match (V2 was not tested)
10 [e8b62de1] (00/22) No match (V2 was not tested)
11 [4d58f6fb] (00/22) No match (V2 was not tested)
12 [f21ea45d] (00/22) No match (V2 was not tested)
13 [ed5bc857] (00/22) No match (V2 was not tested)
14 [a3daab33] (00/22) No match (V2 was not tested)

Track Peak [ CRC32 ] [W/O NULL] [ LOG ]
— 100.0 [867DD3E2] [57C839EA]
01 98.2 [91E80904] [E26D46C6] CRC32
02 100.0 [9C429F5F] [C48F2C0D] CRC32
03 100.0 [3253CFA3] [7F82D187] CRC32
04 99.8 [1891F834] [BA3A4FA4] CRC32
05 98.9 [CA842D1E] [22A80B9E] CRC32
06 99.2 [187D8A18] [A6D414E7] CRC32
07 100.0 [F49B0505] [DC7DB5EA] CRC32
08 100.0 [3AEAD4BC] [0CC957E4] CRC32
09 98.3 [0E7FF93F] [FF8E43D1] CRC32
10 100.0 [051EA6D5] [B68F0C8D] CRC32
11 98.1 [0B3652E3] [DBFD1923] CRC32
12 97.9 [B67CA0A0] [3F41B6E9] CRC32
13 97.9 [9E42868E] [22FC75E6] CRC32
14 98.1 [403EA56D] [F15EDE1B] CRC32

Back & CD label

imagebam.com imagebam.com

Download From
 
LMA__ND.MR.2014.rar
LMA__ND.MR.2014__scans.rar
 
Password: www.LosslessMA.net
 
If you encounter broken links or other problem about this publication, please let me know
and write your comment below. I will reply and fix as soon as possible.