King Crimson – Live at The Orpheum (2015) {CD + DVD-Audio}

King Crimson - Live at The Orpheum (2015) [CD + DVD-Audio]

King Crimson – Live at The Orpheum (2015) {CD + DVD-Audio}
EAC Rip | FLAC Image + Cue + Log | Full Scans @600 dpi, JPG
DVD-A | ISO | MLP 2.0 @24bit/96kHz (AUDIO_TS) | LPCM 2.0 @24bit/96kHz (VIDEO_TS)
Total Size: 200 MB (CD) + 3.88 GB (DVD-A) + 25.4 MB (Scans) | 3% RAR Recovery
Label: Panegyric, Discipline Global Mobile | Cat#: DGMSP2 | Lenght: 40:56 | Genre: Progressive Rock

By all accounts, the somewhat unexpected 2014 King Crimson tour was a resounding success and Live at the Orpheum is the first offering for those who were unable to attend. The band had been reinvented with a combination of new and returning players and the set list consisted largely of tunes that hadn’t been performed live since the ’70s, if at all. The main wild card was the three-drummer front line, which easily could have turned into a mess, even without music as challenging as Crimson’s. Well, the time the three drummers (Pat Mastelotto, Bill Rieflin, and Gavin Harrison) spent rehearsing before convening the entire group was well worth it, because they play with a single mind throughout. The returning Mel Collins sounds fantastic on all manner of saxophones and flute, and hearing Tony Levin’s amazing bass playing on all these old King Crimson tunes is a real treat. Although there will always be haters, Jakko Jakszyk does a fine job on vocals and guitar and, of course, so does the venal leader on guitar. The two new-looking tracks are little more than teasers: the walk-on music performed this particular night by Fripp, Levin, and Collins (there was different walk-on music each night) and “Banshee Legs Bell Hassle” by Mastelotto, Rieflin, and Harrison. The band launches straight into “One More Red Nightmare” and the possibilities of the three-drummer lineup are immediately apparent. “The ConstruKction of Light” is the only tune that doesn’t date back to the ’70s, but the addition of Collins’ flute makes it seem like it does. Live at the Orpheum is a series of highlights, but what fans could have thought they’d ever hear “Sailor’s Tale” performed live? “Starless” is stunning. The only disappointment here is that the album is basically only five songs, so here’s hoping it’s just a taste of more to come.

Review by: Allmusic

Personnel / Credits:
• Pat Mastelotto – Drums, electronic drums, percussion
• Bill Rieflin – Drums, electronic drum, percussion, synthesizer, backing vocals
• Gavin Harrison – Drums, percussion, mixing (Front Line)
• Mel Collins – Saxophones, flutes
• Tony Levin – Basses, double bass, Chapman Stick, funk fingers, backing vocals, photography (cover and road photos)
• Jakko Jakszyk – Guitar, vocals, mixing (Back Line), production engineering
• Robert Fripp – Guitar, guitar synth, keyboards, Soundscapes, mixing (Back Line)

Additional Info:
• Recorded Date: September 30, 2014 & October 1, 2014
• Released Date: January 12, 2015
• Producer: King Crimson

Tracklist:
01. Walk On: Monk Morph Chamber Music – 2:34
02. One More Red Nightmare – 6:07
03. Banshee Legs Bell Hassle – 1:40
04. The ConstruKction Of Light – 6:32
05. The Letters – 4:57
06. Sailor’s Tale – 6:51
07. Starless – 12:15

[su_spoiler title=”EAC Log” icon=”plus-square-1″ style=”fancy”]
Exact Audio Copy V1.0 beta 4 from 7. December 2014

EAC extraction logfile from 5. March 2015, 21:53

King Crimson / Live at The Orpheum (DGMSP2)

Used drive : ATAPI iHAS124 B Adapter: 1 ID: 0

Read mode : Secure
Utilize accurate stream : Yes
Defeat audio cache : Yes
Make use of C2 pointers : No

Read offset correction : 6
Overread into Lead-In and Lead-Out : No
Fill up missing offset samples with silence : Yes
Delete leading and trailing silent blocks : No
Null samples used in CRC calculations : Yes
Used interface : Installed external ASPI interface

Used output format : User Defined Encoder
Selected bitrate : 128 kBit/s
Quality : High
Add ID3 tag : Yes
Command line compressor : C:\Program Files (x86)\Exact Audio Copy\Flac\flac.exe
Additional command line options : -V -8 -T “Date=%year%” -T “Genre=%genre%” %source%

TOC of the extracted CD

Track | Start | Length | Start sector | End sector
———————————————————
1 | 0:00.00 | 2:34.00 | 0 | 11549
2 | 2:34.00 | 6:07.00 | 11550 | 39074
3 | 8:41.00 | 1:40.00 | 39075 | 46574
4 | 10:21.00 | 6:32.00 | 46575 | 75974
5 | 16:53.00 | 4:57.00 | 75975 | 98249
6 | 21:50.00 | 6:51.00 | 98250 | 129074
7 | 28:41.00 | 12:15.08 | 129075 | 184207

Range status and errors

Selected range

Filename G:\CD\King Crimson – Live at The Orpheum.wav

Peak level 90.9 %
Extraction speed 5.3 X
Range quality 100.0 %
Test CRC F32147BF
Copy CRC F32147BF
Copy OK

No errors occurred

AccurateRip summary

Track 1 accurately ripped (confidence 7) [54743B24] (AR v2)
Track 2 accurately ripped (confidence 8) [C11FD4EA] (AR v2)
Track 3 accurately ripped (confidence 8) [DD986D94] (AR v2)
Track 4 accurately ripped (confidence 8) [112BB37A] (AR v2)
Track 5 accurately ripped (confidence 8) [E769BA6D] (AR v2)
Track 6 accurately ripped (confidence 8) [74C2761C] (AR v2)
Track 7 accurately ripped (confidence 8) [E67FA6BA] (AR v2)

All tracks accurately ripped

End of status report

—- CUETools DB Plugin V2.1.4

[CTDB TOCID: 4cJGy4tvgwhqOCkfT8mhOERiO18-] found
Submit result: 4cJGy4tvgwhqOCkfT8mhOERiO18- has been confirmed
Track | CTDB Status
1 | (26/26) Accurately ripped
2 | (26/26) Accurately ripped
3 | (26/26) Accurately ripped
4 | (26/26) Accurately ripped
5 | (26/26) Accurately ripped
6 | (26/26) Accurately ripped
7 | (26/26) Accurately ripped

==== Log checksum FBCD7BF20862A6677744AB7692B1EA6372488208051F2BFC3E9DFBD85BE8E3F8 ====
[/su_spoiler]
[su_spoiler title=”CUETools 2.1.5″ icon=”plus-square-1″ style=”fancy”]
[CUETools log; Date: 3/10/2015 5:00:33 PM; Version: 2.1.5]
[CTDB TOCID: 4cJGy4tvgwhqOCkfT8mhOERiO18-] found.
Track | CTDB Status
1 | (30/30) Accurately ripped
2 | (30/30) Accurately ripped
3 | (30/30) Accurately ripped
4 | (30/30) Accurately ripped
5 | (30/30) Accurately ripped
6 | (30/30) Accurately ripped
7 | (30/30) Accurately ripped
[AccurateRip ID: 0008ec04-00380c66-3e099807] found.
Track [ CRC | V2 ] Status
01 [f1c83367|54743b24] (0+7/7) Accurately ripped
02 [e9617ada|c11fd4ea] (0+8/8) Accurately ripped
03 [74556247|dd986d94] (0+8/8) Accurately ripped
04 [7ce46016|112bb37a] (0+8/8) Accurately ripped
05 [30bed1e6|e769ba6d] (0+8/8) Accurately ripped
06 [51faa84a|74c2761c] (0+8/8) Accurately ripped
07 [422eed92|e67fa6ba] (0+8/8) Accurately ripped

Track Peak [ CRC32 ] [W/O NULL] [ LOG ]
— 90.9 [F32147BF] [B91525A4] CRC32
01 20.0 [46A1EB30] [EF5FCB23]
02 89.5 [E4FC7938] [1B069690]
03 31.9 [A2C268E7] [FC2B372C]
04 90.1 [CA5C9B21] [3BD56DCC]
05 76.5 [8247D20B] [E8D1C599]
06 90.9 [D9D6D324] [7C1CC676]
07 87.9 [2A674E9E] [45B7E9B7]
[/su_spoiler]
[su_spoiler title=”Screenshots DVD” icon=”plus-square-1″ style=”fancy”]

imagebam.com imagebam.com

[/su_spoiler]
[su_spoiler title=”Back 6 label DVD” icon=”plus-square-1″ style=”fancy”]

imagebam.com imagebam.com imagebam.com

[/su_spoiler]

DOWNLOAD FROM
LMA_KiKr.2015.LATO_CD.rar
LMA_KiKr.2015.LATO_DVD-A.part1.rar
LMA_KiKr.2015.LATO_DVD-A.part2.rar
LMA_KiKr.2015.LATO_DVD-A.part3.rar
LMA_KiKr.2015.LATO_DVD-A.part4.rar
LMA_KiKr.2015.LATO_DVD-A.part5.rar
LMA_KiKr.2015.LATO_Scans.rar
 
Password: www.LosslessMA.net
 
If you encounter broken links or other problem about this publication, please let me know
and write your comment below. I will reply and fix as soon as possible.