Rick Wakeman – The Myths and Legends of King Arthur and the Knights of the Round Table (1975) {2015, Deluxe Edition, CD + DVD-Audio}

Rick Wakeman - The Myths and Legends of King Arthur and the Knights of the Round Table (1975) {2015, Deluxe Edition, CD + DVD-Audio}

Rick Wakeman – The Myths and Legends of King Arthur and the Knights of the Round Table (1975) {2015, Deluxe Edition, CD + DVD-Audio}
EAC Rip | FLAC Image + Cue + Log | Full Scans @600 dpi, JPG
DVD-Audio | ISO | MLP @24bit/96kHz, 2ch & 4ch | LPCM @24bit/96kHz, 2ch
DTS @24bit/96kHz, 4ch | Dolby AC3, 4ch
FLAC: 301 MB | DVD: 7.80 GB | Scans: 98.1 MB | 3% RAR Recovery
Label: A&M Records, UMG | Cat#: 5356260 | Genre: Progressive Rock

A deluxe version of one of the classic ‘concept’ Prog albums of all time and Rick Wakeman’s first. Re-mastered with bonus tracks and a Quad mix from the time. Long out of print, the A&M Rick Wakeman catalogue is highly sought after by fans, this is one of the first in a re-issue campaign to restore the Rick Wakeman catalogue back to its former glory.

Personnel / Credits:
• Rick Wakeman – synthesisers, keyboards, grand piano
• Gary Pickford-Hopkins – lead vocals
• Ashley Holt – lead vocals
• Geoff Crampton – lead and acoustic guitars
• Roger Newell – bass guitar
• Barney James – drums
• John Hodgson – percussion
• The English Chamber Choir

Additional Info:
• Recorded Date: April 1975
• Original Released Date: 16 October 1974 – 10 January 1975
• Deluxe Released Date: Feb. 2, 2015
• Producer: Rick Wakeman

Tracklist:
01. Arthur – 7:32
02. Lady of the Lake – 0:46
03. Guinevere – 6:49
04. Sir Lancelot and the Black Knight – 5:25
05. Merlin the Magician – 8:50
06. Sir Galahad – 5:52
07. The Last Battle – 9:45

Tracklist DVD-Audio:
01. Arthur – 7:32
02. Lady of the Lake – 0:46
03. Guinevere – 6:49
04. Sir Lancelot and the Black Knight – 5:25
05. Merlin the Magician – 8:50
06. Sir Galahad – 5:52
07. The Last Battle – 9:45

[su_accordion]
[su_spoiler title=”EAC Log” icon=”plus-square-1″ style=”fancy”]
Exact Audio Copy V1.0 beta 4 from 7. December 2014

EAC extraction logfile from 20. March 2015, 11:45

Rick Wakeman / The Myths and Legends of King Arthur and the Knights of the Round Table (2015, Deluxe Edition, CD+DVD, 5356260)

Used drive : ATAPI iHAS124 B Adapter: 1 ID: 0

Read mode : Secure
Utilize accurate stream : Yes
Defeat audio cache : Yes
Make use of C2 pointers : No

Read offset correction : 6
Overread into Lead-In and Lead-Out : No
Fill up missing offset samples with silence : Yes
Delete leading and trailing silent blocks : No
Null samples used in CRC calculations : Yes
Used interface : Installed external ASPI interface

Used output format : User Defined Encoder
Selected bitrate : 128 kBit/s
Quality : High
Add ID3 tag : Yes
Command line compressor : C:\Program Files (x86)\Exact Audio Copy\Flac\flac.exe
Additional command line options : -V -8 -T “Date=%year%” -T “Genre=%genre%” %source%

TOC of the extracted CD

Track | Start | Length | Start sector | End sector
———————————————————
1 | 0:00.00 | 7:31.45 | 0 | 33869
2 | 7:31.45 | 0:45.53 | 33870 | 37297
3 | 8:17.23 | 6:49.24 | 37298 | 67996
4 | 15:06.47 | 5:25.00 | 67997 | 92371
5 | 20:31.47 | 8:50.02 | 92372 | 132123
6 | 29:21.49 | 5:52.14 | 132124 | 158537
7 | 35:13.63 | 9:44.64 | 158538 | 202401

Range status and errors

Selected range

Filename G:\CD\Rick Wakeman – The Myths and Legends of King Arthur….wav

Peak level 98.1 %
Extraction speed 5.4 X
Range quality 100.0 %
Test CRC E177BD1F
Copy CRC E177BD1F
Copy OK

No errors occurred

AccurateRip summary

Track 1 cannot be verified as accurate (confidence 1) [82E5537D], AccurateRip returned [61F53A97] (AR v2)
Track 2 cannot be verified as accurate (confidence 1) [B6EB0D64], AccurateRip returned [BEF4B23E] (AR v2)
Track 3 cannot be verified as accurate (confidence 1) [D3B95B08], AccurateRip returned [25AD35EA] (AR v2)
Track 4 cannot be verified as accurate (confidence 1) [B797483D], AccurateRip returned [14803729] (AR v2)
Track 5 cannot be verified as accurate (confidence 1) [5173429D], AccurateRip returned [D157C21F] (AR v2)
Track 6 cannot be verified as accurate (confidence 1) [847D15D7], AccurateRip returned [175BA996] (AR v2)
Track 7 cannot be verified as accurate (confidence 1) [A0DB6CE3], AccurateRip returned [4D3C2BB4] (AR v2)

No tracks could be verified as accurate
You may have a different pressing from the one(s) in the database

End of status report

—- CUETools DB Plugin V2.1.4

[CTDB TOCID: 4g.tDieszFHpSEm6NiOCcqNaIBM-] found
Submit result: 4g.tDieszFHpSEm6NiOCcqNaIBM- has been confirmed
Track | CTDB Status
1 | (8/8) Accurately ripped
2 | (8/8) Accurately ripped
3 | (8/8) Accurately ripped
4 | (8/8) Accurately ripped
5 | (8/8) Accurately ripped
6 | (8/8) Accurately ripped
7 | (8/8) Accurately ripped

==== Log checksum 530E313D0CD6BC7089AA581A0CAD50B9B76B4AB8D99F30743347C253A78161F1 ====
[/su_spoiler]
[su_spoiler title=”CUETools 2.1.5″ icon=”plus-square-1″ style=”fancy”]
[CUETools log; Date: 3/23/2015 2:27:32 AM; Version: 2.1.5]
[CTDB TOCID: 4g.tDieszFHpSEm6NiOCcqNaIBM-] found.
Track | CTDB Status
1 | (9/9) Accurately ripped
2 | (9/9) Accurately ripped
3 | (9/9) Accurately ripped
4 | (9/9) Accurately ripped
5 | (9/9) Accurately ripped
6 | (9/9) Accurately ripped
7 | (9/9) Accurately ripped
[AccurateRip ID: 000b0e79-0043ad09-580a8a07] found.
Track [ CRC | V2 ] Status
01 [126c8a28|82e5537d] (0+0/1) No match
02 [e6a52011|b6eb0d64] (0+0/1) No match
03 [41718dac|d3b95b08] (0+0/1) No match
04 [8a8a2093|b797483d] (0+0/1) No match
05 [3ed69b25|5173429d] (0+0/1) No match
06 [e38f6386|847d15d7] (0+0/1) No match
07 [07d0b857|a0db6ce3] (0+0/1) No match
Offsetted by 6:
01 [f04d4302] (0/1) No match (V2 was not tested)
02 [ef09afbf] (0/1) No match (V2 was not tested)
03 [91407235] (0/1) No match (V2 was not tested)
04 [e4d3fabf] (0/1) No match (V2 was not tested)
05 [c2f4c72e] (0/1) No match (V2 was not tested)
06 [792fb18e] (0/1) No match (V2 was not tested)
07 [b8c5036f] (0/1) No match (V2 was not tested)

Track Peak [ CRC32 ] [W/O NULL] [ LOG ]
— 98.1 [E177BD1F] [A7BEFF8F] CRC32
01 97.3 [464483BF] [3A1486A1]
02 85.2 [86E876D3] [61FF2F2F]
03 97.0 [0166F48B] [99A9E46F]
04 98.1 [00EAA477] [430D4860]
05 97.9 [04B401A0] [F13E2CA7]
06 97.6 [97E4937E] [C664A9BD]
07 97.9 [792EC436] [5D57C202]
[/su_spoiler]
[su_spoiler title=”ScreenShots” icon=”plus-square-1″ style=”fancy”]

imagebam.com imagebam.com imagebam.com

[/su_spoiler]
[su_spoiler title=”Back & CD/DVD label” icon=”plus-square-1″ style=”fancy”]

imagebam.com imagebam.com imagebam.com

[/su_spoiler]
[/su_accordion]

DOWNLOAD FROM
 
LMA__RW.TMALOKAATKOTRT.2015__DVD.part01.rar
LMA__RW.TMALOKAATKOTRT.2015__DVD.part02.rar
LMA__RW.TMALOKAATKOTRT.2015__DVD.part03.rar
LMA__RW.TMALOKAATKOTRT.2015__DVD.part04.rar
LMA__RW.TMALOKAATKOTRT.2015__DVD.part05.rar
LMA__RW.TMALOKAATKOTRT.2015__DVD.part06.rar
LMA__RW.TMALOKAATKOTRT.2015__DVD.part07.rar
LMA__RW.TMALOKAATKOTRT.2015__DVD.part08.rar
LMA__RW.TMALOKAATKOTRT.2015__DVD.part09.rar
LMA__RW.TMALOKAATKOTRT.2015__scans.rar
LMA__RW.TMALOKAATKOTRT.2015.rar
 
Password: www.LosslessMA.net
 
If you encounter broken links or other problem about this publication, please let me know
and write your comment below. I will reply and fix as soon as possible.